Comparte
Ir abajo
avatar
Admin
Administrador
Administrador
Sexo : Masculino
Mensajes : 1520
Puntos : 4791
Reputación : 1103
Fecha de inscripción : 02/04/2012
Localización : España

Comedia Dando la nota 3 (2017) [Ver + Descargar] [HD 1080p] [Spanish - English] [Comedia]

el Mar 20 Feb 2018 - 1:37
Reputación del mensaje :100% (2 votos)

Ficha Técnica
SINOPSIS: Tras ganar el campeonato del mundo, las Bellas se separan y descubren que es difícil encontrar trabajo en el mundo de la música. Pero cuando tienen la oportunidad de reunirse para un tour en el extranjero, el grupo volverá a hacer música y a tomar algunas decisiones dudosas.
TÍTULO ORIGINAL: Pitch Perfect 3
AÑO: [Tienes que estar registrado y conectado para ver este vínculo]
DURACIÓN: 93 min.
PAÍS: Estados Unidos
DIRECTOR: Trish Sie
REPARTO: Anna Kendrick, Hailee Steinfeld, Rebel Wilson, Brittany Snow, Elizabeth Banks, Alexis Knapp, Ruby Rose, Anna Camp, Matt Lanter, John Lithgow, Kelley Jakle, Hana Mae Lee, Guy Burnet, Ester Dean, Shelley Regner
GÉNERO: [Tienes que estar registrado y conectado para ver este vínculo] | [Tienes que estar registrado y conectado para ver este vínculo] [Tienes que estar registrado y conectado para ver este vínculo]

Capturas



Trailer

Info
CALIDAD DE VIDEO: BDRip m1080p MPEG4 Video (H264) 1920×1036
CALIDAD DE AUDIO 1: Castellano AC3 5.1 448 Kbps
CALIDAD DE AUDIO 2: Inglés AC3 5.1 448 Kbps
SUBTITULOS: Incluye forzados español y completos español e inglés.
TAMAÑO: 4.91 GiB
Mediainfo:
Format                      : Matroska
Format version              : Version 4 / Version 2
File size                   : 4.91 GiB
Duration                    : 1 h 33 min
Overall bit rate            : 7 549 kb/s
Movie name                  : Dando la nota 3 - [Tienes que estar registrado y conectado para ver este vínculo]
Encoded date                : UTC 2018-04-20 23:23:47
Writing application         : mkvmerge v22.0.0 ('At The End Of The World') 64-bit
Writing library             : libebml v1.3.5 + libmatroska v1.4.8


Video
ID                          : 1
Format                      : AVC
Format/Info                 : Advanced Video Codec
Format profile              : High@L4.1
Format settings             : CABAC / 4 Ref Frames
Format settings, CABAC      : Yes
Format settings, RefFrames  : 4 frames
Codec ID                    : V_MPEG4/ISO/AVC
Duration                    : 1 h 33 min
Bit rate                    : 6 651 kb/s
Width                       : 1 920 pixels
Height                      : 1 036 pixels
Display aspect ratio        : 1.85:1
Frame rate mode             : Constant
Frame rate                  : 23.976 (24000/1001) FPS
Color space                 : YUV
Chroma subsampling          : 4:2:0
Bit depth                   : 8 bits
Scan type                   : Progressive
Bits/(Pixel*Frame)          : 0.139
Stream size                 : 4.32 GiB (88%)
Writing library             : x264 core 155 r2901 7d0ff22
Encoding settings           : cabac=1 / ref=4 / deblock=1:-3:-3 / analyse=0x3:0x113 / me=umh / subme=11 / psy=1 / psy_rd=1.10:0.00 / mixed_ref=1 / me_range=64 / chroma_me=1 / trellis=2 / 8x8dct=1 / cqm=0 / deadzone=21,11 / fast_pskip=0 / chroma_qp_offset=-2 / threads=32 / lookahead_threads=5 / sliced_threads=0 / nr=0 / decimate=1 / interlaced=0 / bluray_compat=0 / constrained_intra=0 / bframes=8 / b_pyramid=2 / b_adapt=2 / b_bias=0 / direct=1 / weightb=1 / open_gop=0 / weightp=2 / keyint=240 / keyint_min=23 / scenecut=40 / intra_refresh=0 / rc_lookahead=80 / rc=crf / mbtree=1 / crf=21.6 / qcomp=0.65 / qpmin=0 / qpmax=69 / qpstep=4 / vbv_maxrate=62500 / vbv_bufsize=78125 / crf_max=0.0 / nal_hrd=none / filler=0 / ip_ratio=1.40 / aq=1:1.10
Language                    : Spanish
Default                     : Yes
Forced                      : Yes


Audio [Tienes que estar registrado y conectado para ver este vínculo]
ID                          : 2
Format                      : AC-3
Format/Info                 : Audio Coding 3
Format settings, Endianness : Big
Codec ID                    : A_AC3
Duration                    : 1 h 33 min
Bit rate mode               : Constant
Bit rate                    : 448 kb/s
Channel(s)                  : 6 channels
Channel positions           : Front: L C R, Side: L R, LFE
Sampling rate               : 48.0 kHz
Frame rate                  : 31.250 FPS (1536 SPF)
Bit depth                   : 16 bits
Compression mode            : Lossy
Stream size                 : 298 MiB (6%)
Title                       : AC-3
Language                    : Spanish
Service kind                : Complete Main
Default                     : Yes
Forced                      : Yes


Audio [Tienes que estar registrado y conectado para ver este vínculo]
ID                          : 3
Format                      : AC-3
Format/Info                 : Audio Coding 3
Format settings, Endianness : Big
Codec ID                    : A_AC3
Duration                    : 1 h 33 min
Bit rate mode               : Constant
Bit rate                    : 448 kb/s
Channel(s)                  : 6 channels
Channel positions           : Front: L C R, Side: L R, LFE
Sampling rate               : 48.0 kHz
Frame rate                  : 31.250 FPS (1536 SPF)
Bit depth                   : 16 bits
Compression mode            : Lossy
Stream size                 : 298 MiB (6%)
Title                       : AC-3
Language                    : English
Service kind                : Complete Main
Default                     : No
Forced                      : No


Text [Tienes que estar registrado y conectado para ver este vínculo]
ID                          : 4
Format                      : UTF-8
Codec ID                    : S_TEXT/UTF8
Codec ID/Info               : UTF-8 Plain Text
Duration                    : 1 h 27 min
Bit rate                    : 15 b/s
Count of elements           : 328
Stream size                 : 10.00 KiB (0%)
Title                       : Forzados
Language                    : Spanish
Default                     : Yes
Forced                      : Yes


Text [Tienes que estar registrado y conectado para ver este vínculo]
ID                          : 5
Format                      : UTF-8
Codec ID                    : S_TEXT/UTF8
Codec ID/Info               : UTF-8 Plain Text
Duration                    : 1 h 27 min
Bit rate                    : 79 b/s
Count of elements           : 1662
Stream size                 : 51.1 KiB (0%)
Title                       : Completos
Language                    : Spanish
Default                     : No
Forced                      : No


Text [Tienes que estar registrado y conectado para ver este vínculo]
ID                          : 6
Format                      : UTF-8
Codec ID                    : S_TEXT/UTF8
Codec ID/Info               : UTF-8 Plain Text
Duration                    : 1 h 31 min
Bit rate                    : 107 b/s
Count of elements           : 2203
Stream size                 : 72.5 KiB (0%)
Title                       : Completos
Language                    : English
Default                     : No
Forced                      : No


Menu
00:00:00.000                : en:Chapter 1
00:02:38.533                : en:Chapter 2
00:05:18.318                : en:Chapter 3
00:09:31.529                : en:Chapter 4
00:14:15.563                : en:Chapter 5
00:16:55.431                : en:Chapter 6
00:19:09.940                : en:Chapter 7
00:24:51.657                : en:Chapter 8
00:29:26.765                : en:Chapter 9
00:34:33.113                : en:Chapter 10
00:38:41.402                : en:Chapter 11
00:45:50.831                : en:Chapter 12
00:50:31.612                : en:Chapter 13
00:55:42.548                : en:Chapter 14
00:59:15.469                : en:Chapter 15
01:05:01.189                : en:Chapter 16
01:09:42.053                : en:Chapter 17
01:15:24.729                : en:Chapter 18
01:19:25.928                : en:Chapter 19
01:26:20.175                : en:Chapter 20


Enlaces Descarga
Tusfiles - Uptobox - 1fichier - Depositfiles - Rapidgator - Userscloud - Wayupload
En algunos servidores (Tusfiles, Filebebo, Sendit, Userscloud...) es necesario estar registrado para descargar archivos grandes y a mayor velocidad.


Enlaces Online
Rapidvideo - Openload - Vidoza - Streamango - Vidlox - Userscloud - Downace
Para ver online en Sendit, Userscloud y Filebebo necesitas estar registrado en su página y usar el navegador Google Chrome


Reproductor



NOTA: Por favor, si los enlaces están caidos avisa en un comentario para poder resubirlos. Gracias


Última edición por Admin el Sáb 21 Abr 2018 - 13:40, editado 2 veces (Razón : Actualizar Calidad)

______________________________________________________
Saludos  Smile
avatar
Admin
Administrador
Administrador
Sexo : Masculino
Mensajes : 1520
Puntos : 4791
Reputación : 1103
Fecha de inscripción : 02/04/2012
Localización : España

Comedia Re: Dando la nota 3 (2017) [Ver + Descargar] [HD 1080p] [Spanish - English] [Comedia]

el Sáb 21 Abr 2018 - 13:34
Actualizada calidad - 21.04.2018

______________________________________________________
Saludos  Smile
Volver arriba
Permisos de este foro:
No puedes responder a temas en este foro.