Comparte
Ir abajo
avatar
Admin
Administrador
Administrador
Sexo : Masculino
Mensajes : 2363
Puntos : 7155
Reputación : 1324
Fecha de inscripción : 02/04/2012
Localización : España

Animación Psiconautas, los niños olvidados (2015) [Ver + Descargar] [HDTv 1080p] [Castellano] [Animación]

el Mar 20 Mar 2018 - 0:27
Reputación del mensaje :100% (2 votos)

Ficha Técnica
SINOPSIS: Birdboy y Dinki son dos amigos que luchan por no enfrentarse a la realidad en la que viven. Como exploradores que son, albergan la esperanza de encontrar un lugar mejor en el que vivir, pues la isla donde viven ya no es lo que era debido a un accidente industrial, y el aire que se respira es asfixiante… Adaptación cinematográfica animada de la novela gráfica homónima de Alberto Vázquez
TÍTULO ORIGINAL: Psiconautas, los niños olvidados (Birdboy: The Forgotten Children)
AÑO: [Tienes que estar registrado y conectado para ver este vínculo]
DURACIÓN: 76 min.
PAÍS: España
DIRECTOR: Pedro Rivero, Alberto Vázquez
GÉNERO: [Tienes que estar registrado y conectado para ver este vínculo] [Tienes que estar registrado y conectado para ver este vínculo] | [Tienes que estar registrado y conectado para ver este vínculo] [Tienes que estar registrado y conectado para ver este vínculo]

Capturas







Trailer

Info
Formato: mkv
Tamaño: 2.35 GB
Video: HDTv 1080p
Audio: AC-3 + MP3
Idioma: Español Castellano
Mediainfo:
General
Format                      : Matroska
Format version              : Version 4 / Version 2
File size                   : 2.35 GiB
Duration                    : 1 h 12 min
Overall bit rate            : 4 618 kb/s
Movie name                  : Psiconautas, los niños olvidados - [Tienes que estar registrado y conectado para ver este vínculo]
Encoded date                : UTC 2018-03-19 16:18:37
Writing application         : mkvmerge v19.0.0 ('Brave Captain') 64-bit
Writing library             : libebml v1.3.5 + libmatroska v1.4.8

Video
ID                          : 1
Format                      : AVC
Format/Info                 : Advanced Video Codec
Format profile              : High@L4
Format settings             : CABAC / 4 Ref Frames
Format settings, CABAC      : Yes
Format settings, RefFrames  : 4 frames
Format settings, GOP        : M=4, N=24
Codec ID                    : V_MPEG4/ISO/AVC
Duration                    : 1 h 12 min
Bit rate                    : 3 910 kb/s
Width                       : 1 920 pixels
Height                      : 1 080 pixels
Display aspect ratio        : 16:9
Frame rate mode             : Variable
Frame rate                  : 50.000 FPS
Original frame rate         : 25.000 FPS
Color space                 : YUV
Chroma subsampling          : 4:2:0
Bit depth                   : 8 bits
Scan type                   : Interlaced
Scan type, store method     : Separated fields
Scan order                  : Top Field First
Bits/(Pixel*Frame)          : 0.038
Stream size                 : 1.99 GiB (85%)
Default                     : Yes
Forced                      : No
Color range                 : Limited
Color primaries             : BT.709
Transfer characteristics    : BT.709
Matrix coefficients         : BT.709

Audio [Tienes que estar registrado y conectado para ver este vínculo]
ID                          : 2
Format                      : MPEG Audio
Format version              : Version 1
Format profile              : Layer 3
Codec ID                    : A_MPEG/L3
Codec ID/Hint               : MP3
Duration                    : 1 h 12 min
Bit rate mode               : Constant
Bit rate                    : 320 kb/s
Channel(s)                  : 2 channels
Sampling rate               : 48.0 kHz
Frame rate                  : 41.667 FPS (1152 SPF)
Compression mode            : Lossy
Stream size                 : 167 MiB (7%)
Title                       : MP3
Language                    : Spanish
Default                     : Yes
Forced                      : Yes

Audio [Tienes que estar registrado y conectado para ver este vínculo]
ID                          : 3
Format                      : AC-3
Format/Info                 : Audio Coding 3
Format settings, Endianness : Big
Codec ID                    : A_AC3
Duration                    : 1 h 12 min
Bit rate mode               : Constant
Bit rate                    : 384 kb/s
Channel(s)                  : 2 channels
Channel positions           : Front: L R
Sampling rate               : 48.0 kHz
Frame rate                  : 31.250 FPS (1536 SPF)
Bit depth                   : 16 bits
Compression mode            : Lossy
Stream size                 : 200 MiB (8%)
Title                       : AC-3
Language                    : Spanish
Service kind                : Complete Main
Default                     : No
Forced                      : No
Enlaces
Rapidvideo - Openload - Vidoza - Streamango - Usercloud - Downace - Uptobox - Tusfiles - 1fichier - Depositfiles - Turbobit - Hitfile - Wayaupload

NOTA: Por favor, si los enlaces están caidos avisa en un comentario para poder resubirlos. Gracias

______________________________________________________
[Tienes que estar registrado y conectado para ver este vínculo]
Saludos  Smile
Volver arriba
Permisos de este foro:
No puedes responder a temas en este foro.