Comparte
Ir abajo
avatar
Admin
Administrador
Administrador
Sexo : Masculino
Mensajes : 664
Puntos : 2359
Reputación : 582
Fecha de inscripción : 02/04/2012
Localización : España

Drama Una razón para vivir (2017) [Ver Online] [Descargar] [HD 1080p] [Castellano] [Drama]

el Miér 21 Mar 2018 - 22:12
Reputación del mensaje :100% (1 voto)

Ficha Técnica
SINOPSIS: Cuenta la historia real de Robin (Andrew Garfield), un joven atractivo, brillante y aventurero cuya vida da un giro drástico cuando la polio le deja paralizado.
TÍTULO ORIGINAL: Breathe
AÑO: [Tienes que estar registrado y conectado para ver este vínculo]
DURACIÓN: 117 min.
PAÍS: Reino Unido
DIRECTOR: Andy Serkis
REPARTO: Andrew Garfield, Claire Foy, Tom Hollander, Hugh Bonneville, Diana Rigg, Miranda Raison, Dean-Charles Chapman, Kiera Bell, Camilla Rutherford, Ed Speleers, Ben Lloyd-Hughes, Emily Bevan, Roger Ashton-Griffiths, James Wilby, Amit Shah, Honey Holmes, Lasco Atkins
GÉNERO: [Tienes que estar registrado y conectado para ver este vínculo] | Enfermedad. Basado en hechos reales

Capturas







Trailer

Info
Formato: mkv
Tamaño: 4.62 GB
Video: HD 1080p
Audio: AC-3 + MP3
Idioma: Español Castellano + Inglés
Mediainfo:
General
Format                      : Matroska
Format version              : Version 4 / Version 2
File size                   : 4.62 GiB
Duration                    : 1 h 58 min
Overall bit rate            : 5 600 kb/s
Movie name                  : Una razón para vivir - [Tienes que estar registrado y conectado para ver este vínculo]
Encoded date                : UTC 2018-03-19 19:24:07
Writing application         : mkvmerge v19.0.0 ('Brave Captain') 64-bit
Writing library             : libebml v1.3.5 + libmatroska v1.4.8

Video
ID                          : 1
Format                      : AVC
Format/Info                 : Advanced Video Codec
Format profile              : High@L4.1
Format settings             : CABAC / 4 Ref Frames
Format settings, CABAC      : Yes
Format settings, RefFrames  : 4 frames
Codec ID                    : V_MPEG4/ISO/AVC
Duration                    : 1 h 58 min
Bit rate                    : 4 500 kb/s
Width                       : 1 920 pixels
Height                      : 696 pixels
Display aspect ratio        : 2.759
Frame rate mode             : Constant
Frame rate                  : 23.976 (24000/1001) FPS
Color space                 : YUV
Chroma subsampling          : 4:2:0
Bit depth                   : 8 bits
Scan type                   : Progressive
Bits/(Pixel*Frame)          : 0.140
Stream size                 : 3.62 GiB (78%)
Writing library             : x264 core 148 r2708 86b7198
Default                     : Yes
Forced                      : Yes
Color range                 : Limited
Color primaries             : BT.709
Transfer characteristics    : BT.709
Matrix coefficients         : BT.709

Audio [Tienes que estar registrado y conectado para ver este vínculo]
ID                          : 2
Format                      : MPEG Audio
Format version              : Version 1
Format profile              : Layer 3
Codec ID                    : A_MPEG/L3
Codec ID/Hint               : MP3
Duration                    : 1 h 58 min
Bit rate mode               : Constant
Bit rate                    : 320 kb/s
Channel(s)                  : 2 channels
Sampling rate               : 48.0 kHz
Frame rate                  : 41.667 FPS (1152 SPF)
Compression mode            : Lossy
Delay relative to video     : -5 ms
Stream size                 : 270 MiB (6%)
Title                       : MP3
Language                    : Spanish
Default                     : Yes
Forced                      : Yes

Audio [Tienes que estar registrado y conectado para ver este vínculo]
ID                          : 3
Format                      : AC-3
Format/Info                 : Audio Coding 3
Format settings, Endianness : Big
Codec ID                    : A_AC3
Duration                    : 1 h 58 min
Bit rate mode               : Constant
Bit rate                    : 448 kb/s
Channel(s)                  : 6 channels
Channel positions           : Front: L C R, Side: L R, LFE
Sampling rate               : 48.0 kHz
Frame rate                  : 31.250 FPS (1536 SPF)
Bit depth                   : 16 bits
Compression mode            : Lossy
Delay relative to video     : -5 ms
Stream size                 : 378 MiB (8%)
Title                       : AC-3
Language                    : Spanish
Service kind                : Complete Main
Default                     : No
Forced                      : No

Audio [Tienes que estar registrado y conectado para ver este vínculo]
ID                          : 4
Format                      : AC-3
Format/Info                 : Audio Coding 3
Format settings, Endianness : Big
Codec ID                    : A_AC3
Duration                    : 1 h 58 min
Bit rate mode               : Constant
Bit rate                    : 448 kb/s
Channel(s)                  : 6 channels
Channel positions           : Front: L C R, Side: L R, LFE
Sampling rate               : 48.0 kHz
Frame rate                  : 31.250 FPS (1536 SPF)
Bit depth                   : 16 bits
Compression mode            : Lossy
Delay relative to video     : -5 ms
Stream size                 : 379 MiB (8%)
Title                       : AC-3
Language                    : English
Service kind                : Complete Main
Default                     : No
Forced                      : No

Text
ID                          : 5
Format                      : UTF-8
Codec ID                    : S_TEXT/UTF8
Codec ID/Info               : UTF-8 Plain Text
Duration                    : 1 h 51 min
Bit rate                    : 46 b/s
Count of elements           : 1238
Stream size                 : 38.2 KiB (0%)
Title                       : Completos
Language                    : Spanish
Default                     : No
Forced                      : No
Enlaces
[Tienes que estar registrado y conectado para ver este vínculo] - [Tienes que estar registrado y conectado para ver este vínculo] - [Tienes que estar registrado y conectado para ver este vínculo] - [Tienes que estar registrado y conectado para ver este vínculo] - [Tienes que estar registrado y conectado para ver este vínculo] - [Tienes que estar registrado y conectado para ver este vínculo] - [Tienes que estar registrado y conectado para ver este vínculo] - [Tienes que estar registrado y conectado para ver este vínculo] - [Tienes que estar registrado y conectado para ver este vínculo] - [Tienes que estar registrado y conectado para ver este vínculo] - [Tienes que estar registrado y conectado para ver este vínculo] - [Tienes que estar registrado y conectado para ver este vínculo] - [Tienes que estar registrado y conectado para ver este vínculo]

NOTA: Por favor, si los enlaces están caidos avisa en un comentario para poder resubirlos. Gracias
Volver arriba
Permisos de este foro:
No puedes responder a temas en este foro.