Comparte
Ir abajo
avatar
Admin
Administrador
Administrador
Sexo : Masculino
Mensajes : 1344
Puntos : 4374
Reputación : 1056
Fecha de inscripción : 02/04/2012
Localización : España

Animación Fairy Tail: Dragon Cry (2017) [Ver + Descargar] [HD 1080p] [Castellano] [Manga]

el Miér 28 Mar 2018 - 23:29
Reputación del mensaje :100% (1 voto)

Ficha Técnica
SINOPSIS: Natsu Dragneel y sus amigos viajan a la isla Reino de Stella, donde se revelarán secretos oscuros, tendrán que enfrentarse a nuevos enemigos y, una vez más, deberán salvar al mundo de la destrucción absoluta.
TÍTULO ORIGINAL: Gekijouban Fairy Tail: Dragon Cry
AÑO: [Tienes que estar registrado y conectado para ver este vínculo]
DURACIÓN: 95 min.
PAÍS: Japón
DIRECTOR: Tatsuma Minamikawa
REPARTO: Animation
GÉNERO: [Tienes que estar registrado y conectado para ver este vínculo] [Tienes que estar registrado y conectado para ver este vínculo] [Tienes que estar registrado y conectado para ver este vínculo] | [Tienes que estar registrado y conectado para ver este vínculo]

Capturas







Trailer

Info
Formato: mkv
Tamaño: 4.29 GB
Video: HD 1080p
Audio: AC-3 - MP3
Idioma: Español Castellano
Mediainfo:
Format                      : Matroska
Format version              : Version 4 / Version 2
File size                   : 4.29 GiB
Duration                    : 1 h 25 min
Overall bit rate            : 7 213 kb/s
Movie name                  : Fairy Tail: Dragon Cry - [Tienes que estar registrado y conectado para ver este vínculo]
Encoded date                : UTC 2018-03-23 00:00:38
Writing application         : mkvmerge v19.0.0 ('Brave Captain') 64-bit
Writing library             : libebml v1.3.5 + libmatroska v1.4.8

Video
ID                          : 1
Format                      : AVC
Format/Info                 : Advanced Video Codec
Format profile              : High@L4.1
Format settings             : CABAC / 4 Ref Frames
Format settings, CABAC      : Yes
Format settings, RefFrames  : 4 frames
Codec ID                    : V_MPEG4/ISO/AVC
Duration                    : 1 h 25 min
Bit rate                    : 6 456 kb/s
Width                       : 1 920 pixels
Height                      : 1 080 pixels
Display aspect ratio        : 16:9
Frame rate mode             : Constant
Frame rate                  : 23.976 (24000/1001) FPS
Color space                 : YUV
Chroma subsampling          : 4:2:0
Bit depth                   : 8 bits
Scan type                   : Progressive
Bits/(Pixel*Frame)          : 0.130
Stream size                 : 3.83 GiB (89%)
Writing library             : x264 core 155 r2901 7d0ff22
Language                    : Spanish
Default                     : Yes
Forced                      : Yes

Audio [Tienes que estar registrado y conectado para ver este vínculo]
ID                          : 2
Format                      : MPEG Audio
Format version              : Version 1
Format profile              : Layer 3
Codec ID                    : A_MPEG/L3
Codec ID/Hint               : MP3
Duration                    : 1 h 24 min
Bit rate mode               : Constant
Bit rate                    : 320 kb/s
Channel(s)                  : 2 channels
Sampling rate               : 48.0 kHz
Frame rate                  : 41.667 FPS (1152 SPF)
Compression mode            : Lossy
Stream size                 : 193 MiB (4%)
Title                       : MP3
Language                    : Spanish
Default                     : Yes
Forced                      : Yes

Audio [Tienes que estar registrado y conectado para ver este vínculo]
ID                          : 3
Format                      : AC-3
Format/Info                 : Audio Coding 3
Codec ID                    : A_AC3
Duration                    : 1 h 24 min
Bit rate                    : 448 kb/s
Channel(s)                  : 2 channels
Sampling rate               : 48.0 kHz
Frame rate                  : 31.250 FPS (1536 SPF)
Compression mode            : Lossy
Stream size                 : 271 MiB (6%)
Title                       : AC-3
Language                    : Spanish
Default                     : No
Forced                      : No
Enlaces
Openload - Vidoza - Streamango - Downace - Sendit - Userscloud - Tusfiles - 1fichier - Depositfiles - Rapidgator - Wayupload

Reproductor


NOTA: Por favor, si los enlaces están caidos avisa en un comentario para poder resubirlos. Gracias

______________________________________________________
Saludos  Smile
Volver arriba
Permisos de este foro:
No puedes responder a temas en este foro.