Comparte
Ir abajo
avatar
Admin
Administrador
Administrador
Sexo : Masculino
Mensajes : 690
Puntos : 2458
Reputación : 609
Fecha de inscripción : 02/04/2012
Localización : España

Terror Saw (2004) [Ver Online] [Descargar] [HD 1080p] [Spa-Eng] [Terror Thriller Intriga]

el Jue 29 Mar 2018 - 0:39
Reputación del mensaje :100% (1 voto)

Ficha Técnica
SINOPSIS: Adam se despierta encadenado a un tubo oxidado dentro de una decrépita cámara subterránea. A su lado, hay otra persona encadenada, el Dr. Lawrence Gordon. Entre ellos hay un hombre muerto. Ninguno de los dos sabe por qué está allí, pero tienen un casette con instrucciones para que el Dr. Gordon mate a Adam en un plazo de ocho horas. Recordando una investigación de asesinato llevada a cabo por un detective llamado Tapp, Gordon descubre que él y Adam son victimas de un psicópata conocido como Jigsaw. Sólo disponen de unas horas para desenredar el complicado rompecabezas en el que están inmersos.
TÍTULO ORIGINAL: Saw
AÑO: [Tienes que estar registrado y conectado para ver este vínculo]
DURACIÓN: 100 min.
PAÍS: Estados Unidos
DIRECTOR: James Wan
REPARTO: Cary Elwes, Leigh Whannell, Danny Glover, Monica Potter, Dina Meyer, Tobin Bell, Shawnee Smith, Ken Leung, Alexandra Bokyun Chun, Michael Emerson, Makenzie Vegas, Mike Butters, Paul Gutrecht, Benito Martinez
GÉNERO: [Tienes que estar registrado y conectado para ver este vínculo] [Tienes que estar registrado y conectado para ver este vínculo] [Tienes que estar registrado y conectado para ver este vínculo] | Gore. Película de culto. Asesinos en serie. Secuestros / Desapariciones

Capturas







Trailer

Info
Formato: mkv
Tamaño: 3.01 GB
Video: HD 1080p
Audio: AC-3 - MP3
Idioma: Español Castellano + Inglés
Mediainfo:
Format                      : Matroska
Format version              : Version 4 / Version 2
File size                   : 3.01 GiB
Duration                    : 1 h 43 min
Overall bit rate            : 4 161 kb/s
Movie name                  : Saw - [Tienes que estar registrado y conectado para ver este vínculo]
Encoded date                : UTC 2018-03-24 12:23:02
Writing application         : mkvmerge v19.0.0 ('Brave Captain') 64-bit
Writing library             : libebml v1.3.5 + libmatroska v1.4.8

Video
ID                          : 1
Format                      : AVC
Format/Info                 : Advanced Video Codec
Format profile              : High@L4.1
Format settings             : CABAC / 4 Ref Frames
Format settings, CABAC      : Yes
Format settings, RefFrames  : 4 frames
Codec ID                    : V_MPEG4/ISO/AVC
Duration                    : 1 h 42 min
Bit rate                    : 3 299 kb/s
Width                       : 1 920 pixels
Height                      : 1 040 pixels
Display aspect ratio        : 1.85:1
Frame rate mode             : Constant
Frame rate                  : 24.000 FPS
Color space                 : YUV
Chroma subsampling          : 4:2:0
Bit depth                   : 8 bits
Scan type                   : Progressive
Bits/(Pixel*Frame)          : 0.069
Stream size                 : 2.37 GiB (79%)
Writing library             : x264 core 98 r1649 c54c47d
Language                    : Spanish
Default                     : Yes
Forced                      : Yes

Audio [Tienes que estar registrado y conectado para ver este vínculo]
ID                          : 2
Format                      : MPEG Audio
Format version              : Version 1
Format profile              : Layer 3
Codec ID                    : A_MPEG/L3
Codec ID/Hint               : MP3
Duration                    : 1 h 42 min
Bit rate mode               : Constant
Bit rate                    : 320 kb/s
Channel(s)                  : 2 channels
Sampling rate               : 48.0 kHz
Frame rate                  : 41.667 FPS (1152 SPF)
Compression mode            : Lossy
Stream size                 : 235 MiB (8%)
Title                       : MP3
Language                    : Spanish
Default                     : Yes
Forced                      : Yes

Audio [Tienes que estar registrado y conectado para ver este vínculo]
ID                          : 3
Format                      : AC-3
Format/Info                 : Audio Coding 3
Format settings, Endianness : Big
Codec ID                    : A_AC3
Duration                    : 1 h 42 min
Bit rate mode               : Constant
Bit rate                    : 320 kb/s
Channel(s)                  : 6 channels
Channel positions           : Front: L C R, Side: L R, LFE
Sampling rate               : 48.0 kHz
Frame rate                  : 31.250 FPS (1536 SPF)
Bit depth                   : 16 bits
Compression mode            : Lossy
Stream size                 : 235 MiB (8%)
Title                       : AC-3
Language                    : Spanish
Service kind                : Complete Main
Default                     : No
Forced                      : No

Audio [Tienes que estar registrado y conectado para ver este vínculo]
ID                          : 4
Format                      : AC-3
Format/Info                 : Audio Coding 3
Format settings, Endianness : Big
Codec ID                    : A_AC3
Duration                    : 1 h 43 min
Bit rate mode               : Constant
Bit rate                    : 256 kb/s
Channel(s)                  : 6 channels
Channel positions           : Front: L C R, Side: L R, LFE
Sampling rate               : 48.0 kHz
Frame rate                  : 31.250 FPS (1536 SPF)
Bit depth                   : 16 bits
Compression mode            : Lossy
Stream size                 : 190 MiB (6%)
Title                       : AC-3
Language                    : English
Service kind                : Complete Main
Default                     : No
Forced                      : No

Text [Tienes que estar registrado y conectado para ver este vínculo]
ID                          : 5
Format                      : UTF-8
Codec ID                    : S_TEXT/UTF8
Codec ID/Info               : UTF-8 Plain Text
Duration                    : 1 h 37 min
Bit rate                    : 39 b/s
Count of elements           : 855
Stream size                 : 28.0 KiB (0%)
Language                    : Spanish
Default                     : No
Forced                      : No

Text [Tienes que estar registrado y conectado para ver este vínculo]
ID                          : 6
Format                      : UTF-8
Codec ID                    : S_TEXT/UTF8
Codec ID/Info               : UTF-8 Plain Text
Duration                    : 1 h 37 min
Bit rate                    : 41 b/s
Count of elements           : 898
Stream size                 : 29.8 KiB (0%)
Language                    : English
Default                     : No
Forced                      : No
Enlaces
[Tienes que estar registrado y conectado para ver este vínculo] - [Tienes que estar registrado y conectado para ver este vínculo] - [Tienes que estar registrado y conectado para ver este vínculo] - [Tienes que estar registrado y conectado para ver este vínculo] - [Tienes que estar registrado y conectado para ver este vínculo] - [Tienes que estar registrado y conectado para ver este vínculo] - [Tienes que estar registrado y conectado para ver este vínculo] - [Tienes que estar registrado y conectado para ver este vínculo] - [Tienes que estar registrado y conectado para ver este vínculo] - [Tienes que estar registrado y conectado para ver este vínculo] - [Tienes que estar registrado y conectado para ver este vínculo] - [Tienes que estar registrado y conectado para ver este vínculo] - [Tienes que estar registrado y conectado para ver este vínculo]

Reproductor


NOTA: Por favor, si los enlaces están caidos avisa en un comentario para poder resubirlos. Gracias

______________________________________________________
Saludos  Smile
Volver arriba
Permisos de este foro:
No puedes responder a temas en este foro.