Comparte
Ir abajo
avatar
Admin
Administrador
Administrador
Sexo : Masculino
Mensajes : 1330
Puntos : 4344
Reputación : 1050
Fecha de inscripción : 02/04/2012
Localización : España

Terror Saw II (Saw 2) (2005) [Ver Online] [Descargar] [HD 1080p] [Castellano] [Terror Thriller Intriga]

el Jue 29 Mar 2018 - 1:17
Reputación del mensaje :100% (1 voto)

Ficha Técnica
SINOPSIS: “Decide rápido… o muere despacio”. Cuando aparece una nueva víctima de asesinato con los signos característicos de Jigsaw, el Agente Eric Matthews (Donnie Wahlberg) se embarca en una investigación exhaustiva que le permite detener al asesino sin demasiado esfuerzo. Sin embargo, para Jigsaw ser detenido no es sino otra parte de su retorcido plan. Hay otras ocho víctimas jugándose la vida y ahora le toca a Matthews unirse al juego…
TÍTULO ORIGINAL: Saw II (Saw 2)
AÑO: [Tienes que estar registrado y conectado para ver este vínculo]
DURACIÓN: 93 min.
PAÍS: Estados Unidos
DIRECTOR: Darren Lynn Bousman
REPARTO: Donnie Wahlberg, Shawnee Smith, Tobin Bell, Franky G., Glenn Plummer, Dina Meyer, Emmanuelle Vaugier, Beverley Mitchell, Eric Knudsen, Tim Burd, Lyriq Bent
GÉNERO: [Tienes que estar registrado y conectado para ver este vínculo] [Tienes que estar registrado y conectado para ver este vínculo] [Tienes que estar registrado y conectado para ver este vínculo] | [Tienes que estar registrado y conectado para ver este vínculo] [Tienes que estar registrado y conectado para ver este vínculo] [Tienes que estar registrado y conectado para ver este vínculo] / [Tienes que estar registrado y conectado para ver este vínculo] [Tienes que estar registrado y conectado para ver este vínculo]

Capturas







Trailer

Info
Formato: mkv
Tamaño: 2.77 GB
Video: HD 1080p
Audio: AC-3 - MP3
Idioma: Español Castellano + Inglés
Mediainfo:
Format                      : Matroska
Format version              : Version 4 / Version 2
File size                   : 2.77 GiB
Duration                    : 1 h 34 min
Overall bit rate            : 4 192 kb/s
Movie name                  : Saw II - [Tienes que estar registrado y conectado para ver este vínculo]
Encoded date                : UTC 2018-03-24 19:25:35
Writing application         : mkvmerge v19.0.0 ('Brave Captain') 64-bit
Writing library             : libebml v1.3.5 + libmatroska v1.4.8

Video
ID                          : 1
Format                      : AVC
Format/Info                 : Advanced Video Codec
Format profile              : High@L4.1
Format settings             : CABAC / 4 Ref Frames
Format settings, CABAC      : Yes
Format settings, RefFrames  : 4 frames
Codec ID                    : V_MPEG4/ISO/AVC
Duration                    : 1 h 34 min
Bit rate                    : 3 299 kb/s
Width                       : 1 920 pixels
Height                      : 1 072 pixels
Display aspect ratio        : 16:9
Frame rate mode             : Constant
Frame rate                  : 24.000 FPS
Color space                 : YUV
Chroma subsampling          : 4:2:0
Bit depth                   : 8 bits
Scan type                   : Progressive
Bits/(Pixel*Frame)          : 0.067
Stream size                 : 2.17 GiB (79%)
Writing library             : x264 core 98 r1649 c54c47d
Language                    : Spanish
Default                     : Yes
Forced                      : Yes

Audio [Tienes que estar registrado y conectado para ver este vínculo]
ID                          : 2
Format                      : MPEG Audio
Format version              : Version 1
Format profile              : Layer 3
Codec ID                    : A_MPEG/L3
Codec ID/Hint               : MP3
Duration                    : 1 h 34 min
Bit rate mode               : Constant
Bit rate                    : 320 kb/s
Channel(s)                  : 2 channels
Sampling rate               : 48.0 kHz
Frame rate                  : 41.667 FPS (1152 SPF)
Compression mode            : Lossy
Stream size                 : 216 MiB (8%)
Title                       : MP3
Language                    : Spanish
Default                     : Yes
Forced                      : Yes

Audio [Tienes que estar registrado y conectado para ver este vínculo]
ID                          : 3
Format                      : AC-3
Format/Info                 : Audio Coding 3
Format settings, Endianness : Big
Codec ID                    : A_AC3
Duration                    : 1 h 34 min
Bit rate mode               : Constant
Bit rate                    : 320 kb/s
Channel(s)                  : 6 channels
Channel positions           : Front: L C R, Side: L R, LFE
Sampling rate               : 48.0 kHz
Frame rate                  : 31.250 FPS (1536 SPF)
Bit depth                   : 16 bits
Compression mode            : Lossy
Stream size                 : 216 MiB (8%)
Title                       : AC-3
Language                    : Spanish
Service kind                : Complete Main
Default                     : No
Forced                      : No

Audio [Tienes que estar registrado y conectado para ver este vínculo]
ID                          : 4
Format                      : AC-3
Format/Info                 : Audio Coding 3
Format settings, Endianness : Big
Codec ID                    : A_AC3
Duration                    : 1 h 34 min
Bit rate mode               : Constant
Bit rate                    : 256 kb/s
Channel(s)                  : 6 channels
Channel positions           : Front: L C R, Side: L R, LFE
Sampling rate               : 48.0 kHz
Frame rate                  : 31.250 FPS (1536 SPF)
Bit depth                   : 16 bits
Compression mode            : Lossy
Stream size                 : 173 MiB (6%)
Title                       : AC-3
Language                    : English
Service kind                : Complete Main
Default                     : No
Forced                      : No

Text
ID                          : 5
Format                      : UTF-8
Codec ID                    : S_TEXT/UTF8
Codec ID/Info               : UTF-8 Plain Text
Duration                    : 1 h 26 min
Bit rate                    : 55 b/s
Count of elements           : 1038
Stream size                 : 35.2 KiB (0%)
Language                    : English
Default                     : No
Forced                      : No
Enlaces
Rapidvideo - Openload - Vidoza - Streamango - Downace - Sendit - Userscloud - Tusfiles - Uptobox - 1fichier - Depositfiles - Hitfile - Rapidgator - Turbobit - Wayupload

NOTA: Por favor, si los enlaces están caidos avisa en un comentario para poder resubirlos. Gracias

______________________________________________________
Saludos  Smile
Volver arriba
Permisos de este foro:
No puedes responder a temas en este foro.