Comparte
Ir abajo
avatar
Admin
Administrador
Administrador
Sexo : Masculino
Mensajes : 1159
Puntos : 3959
Reputación : 976
Fecha de inscripción : 02/04/2012
Localización : España

C.Ficción Star Wars: Los últimos Jedi (2017) [Ver + Descargar] [HD 1080p] [Spa-Eng] [C.Ficción]

el Vie 30 Mar 2018 - 10:02
Reputación del mensaje :100% (2 votos)

Ficha Técnica
SINOPSIS: La malvada Primera Orden se ha vuelto más poderosa y tiene contra las cuerdas a la Resistencia, liderada por la General Leia Organa (Carrie Fisher). El piloto Poe Dameron (Oscar Isaac) encabeza una misión para intentar destruir un acorazado de la Primera Orden. Mientras tanto, la joven Rey (Daisy Ridley) tendrá que definir su futuro y su vocación, y el viejo jedi Luke Skywalker (Mark Hamill) revaluar el significado de su vida.
TÍTULO ORIGINAL: Star Wars: The Last Jedi
AÑO: [Tienes que estar registrado y conectado para ver este vínculo]
DURACIÓN: 150 min.
PAÍS: Estados Unidos
DIRECTOR: Rian Johnson
REPARTO: Daisy Ridley, John Boyega, Adam Driver, Óscar Isaac, Mark Hamill, Carrie Fisher, Kelly Marie Tran, Domhnall Gleeson, Benicio del Toro, Laura Dern, Andy Serkis, Gwendoline Christie, Lupita Nyong’o, Anthony Daniels, Frank Oz, Warwick Davis, Justin Theroux, Billie Lourd, Lily Cole, Navin Chowdhry, Temirlan Blaev, Sara Heller, Josiah Oniha, Joseph Gordon-Levitt
GÉNERO: Ciencia [Tienes que estar registrado y conectado para ver este vínculo] [Tienes que estar registrado y conectado para ver este vínculo] [Tienes que estar registrado y conectado para ver este vínculo] [Tienes que estar registrado y conectado para ver este vínculo] | Star Wars. Secuela. Aventura espacial

Capturas







Trailer

Info
CALIDAD DE VIDEO: BDRip m1080p MPEG4 Video (H264) 1920×804
CALIDAD DE AUDIO 1: Castellano DTS 5.1 1509 Kbps
CALIDAD DE AUDIO 2: Castellano AC3 5.1 448 Kbps
CALIDAD DE AUDIO 3: Inglés AC3 5.1 384 Kbps
SUBTITULOS: Incluye forzados en español y completos en español e inglés.
TAMAÑO: 7.69 GiB
Mediainfo:
Format                      : Matroska
Format version              : Version 4 / Version 2
File size                   : 7.69 GiB
Duration                    : 2 h 31 min
Overall bit rate            : 7 250 kb/s
Movie name                  : Star Wars: Los Ultimos Jedi - [Tienes que estar registrado y conectado para ver este vínculo]
Encoded date                : UTC 2018-03-29 21:10:53
Writing application         : mkvmerge v21.0.0 ('Tardigrades Will Inherit The Earth') 64-bit
Writing library             : libebml v1.3.5 + libmatroska v1.4.8

Video
ID                          : 1
Format                      : AVC
Format/Info                 : Advanced Video Codec
Format profile              : High@L4.1
Format settings             : CABAC / 5 Ref Frames
Format settings, CABAC      : Yes
Format settings, RefFrames  : 5 frames
Codec ID                    : V_MPEG4/ISO/AVC
Duration                    : 2 h 31 min
Bit rate                    : 4 906 kb/s
Width                       : 1 920 pixels
Height                      : 804 pixels
Display aspect ratio        : 2.40:1
Frame rate mode             : Constant
Frame rate                  : 23.976 (24000/1001) FPS
Color space                 : YUV
Chroma subsampling          : 4:2:0
Bit depth                   : 8 bits
Scan type                   : Progressive
Bits/(Pixel*Frame)          : 0.133
Stream size                 : 5.20 GiB (68%)
Writing library             : x264 core 155 r2901 7d0ff22
Default                     : Yes
Forced                      : Yes

Audio [Tienes que estar registrado y conectado para ver este vínculo]
ID                          : 2
Format                      : DTS
Format/Info                 : Digital Theater Systems
Mode                        : 16
Format settings, Endianness : Big
Codec ID                    : A_DTS
Duration                    : 2 h 31 min
Bit rate mode               : Constant
Bit rate                    : 1 509 kb/s
Channel(s)                  : 6 channels
Channel positions           : Front: L C R, Side: L R, LFE
Sampling rate               : 48.0 kHz
Frame rate                  : 93.750 FPS (512 SPF)
Bit depth                   : 24 bits
Compression mode            : Lossy
Stream size                 : 1.60 GiB (21%)
Language                    : Spanish
Default                     : Yes
Forced                      : Yes

Audio [Tienes que estar registrado y conectado para ver este vínculo]
ID                          : 3
Format                      : AC-3
Format/Info                 : Audio Coding 3
Format settings, Endianness : Big
Codec ID                    : A_AC3
Duration                    : 2 h 31 min
Bit rate mode               : Constant
Bit rate                    : 448 kb/s
Channel(s)                  : 6 channels
Channel positions           : Front: L C R, Side: L R, LFE
Sampling rate               : 48.0 kHz
Frame rate                  : 31.250 FPS (1536 SPF)
Bit depth                   : 16 bits
Compression mode            : Lossy
Stream size                 : 487 MiB (6%)
Language                    : Spanish
Service kind                : Complete Main
Default                     : No
Forced                      : No

Audio [Tienes que estar registrado y conectado para ver este vínculo]
ID                          : 4
Format                      : AC-3
Format/Info                 : Audio Coding 3
Format settings, Endianness : Big
Codec ID                    : A_AC3
Duration                    : 2 h 31 min
Bit rate mode               : Constant
Bit rate                    : 384 kb/s
Channel(s)                  : 6 channels
Channel positions           : Front: L C R, Side: L R, LFE
Sampling rate               : 48.0 kHz
Frame rate                  : 31.250 FPS (1536 SPF)
Bit depth                   : 16 bits
Compression mode            : Lossy
Stream size                 : 417 MiB (5%)
Language                    : English
Service kind                : Complete Main
Default                     : No
Forced                      : No

Text [Tienes que estar registrado y conectado para ver este vínculo]
ID                          : 5
Format                      : UTF-8
Codec ID                    : S_TEXT/UTF8
Codec ID/Info               : UTF-8 Plain Text
Duration                    : 2 s 298 ms
Bit rate                    : 177 b/s
Count of elements           : 1
Stream size                 : 51.0 Bytes (0%)
Title                       : Forzados
Language                    : Spanish
Default                     : Yes
Forced                      : Yes

Text [Tienes que estar registrado y conectado para ver este vínculo]
ID                          : 6
Format                      : UTF-8
Codec ID                    : S_TEXT/UTF8
Codec ID/Info               : UTF-8 Plain Text
Duration                    : 2 h 22 min
Bit rate                    : 40 b/s
Count of elements           : 1581
Stream size                 : 42.2 KiB (0%)
Language                    : Spanish
Default                     : No
Forced                      : No

Text [Tienes que estar registrado y conectado para ver este vínculo]
ID                          : 7
Format                      : UTF-8
Codec ID                    : S_TEXT/UTF8
Codec ID/Info               : UTF-8 Plain Text
Duration                    : 2 h 20 min
Bit rate                    : 39 b/s
Count of elements           : 1570
Stream size                 : 40.4 KiB (0%)
Language                    : English
Default                     : No
Forced                      : No

Menu
00:00:00.000                : en:Chapter 1
00:00:18.643                : en:Chapter 2
00:01:45.730                : en:Chapter 3
00:03:11.816                : en:Chapter 4
00:07:43.296                : en:Chapter 5
00:12:48.434                : en:Chapter 6
00:13:44.573                : en:Chapter 7
00:16:29.279                : en:Chapter 8
00:19:59.281                : en:Chapter 9
00:22:51.369                : en:Chapter 10
00:26:04.980                : en:Chapter 11
00:27:22.849                : en:Chapter 12
00:31:24.757                : en:Chapter 13
00:32:54.681                : en:Chapter 14
00:35:27.667                : en:Chapter 15
00:38:11.497                : en:Chapter 16
00:41:53.427                : en:Chapter 17
00:44:29.541                : en:Chapter 18
00:46:51.475                : en:Chapter 19
00:51:41.932                : en:Chapter 20
00:53:50.060                : en:Chapter 21
00:55:41.504                : en:Chapter 22
00:57:39.581                : en:Chapter 23
00:59:16.636                : en:Chapter 24
01:02:05.847                : en:Chapter 25
01:03:07.700                : en:Chapter 26
01:05:41.729                : en:Chapter 27
01:07:03.477                : en:Chapter 28
01:10:25.721                : en:Chapter 29
01:13:30.322                : en:Chapter 30
01:17:43.450                : en:Chapter 31
01:20:53.056                : en:Chapter 32
01:24:17.969                : en:Chapter 33
01:26:23.219                : en:Chapter 34
01:27:59.524                : en:Chapter 35
01:30:49.360                : en:Chapter 36
01:32:54.568                : en:Chapter 37
01:35:53.706                : en:Chapter 38
01:37:10.616                : en:Chapter 39
01:39:12.863                : en:Chapter 40
01:42:07.663                : en:Chapter 41
01:45:03.714                : en:Chapter 42
01:49:35.694                : en:Chapter 43
01:52:20.608                : en:Chapter 44
01:56:04.749                : en:Chapter 45
01:58:52.083                : en:Chapter 46
02:03:11.133                : en:Chapter 47
02:06:39.758                : en:Chapter 48
02:11:43.604                : en:Chapter 49
02:15:12.103                : en:Chapter 50
02:20:16.699                : en:Chapter 51
02:23:39.694                : en:Chapter 52


Enlaces
Rapidvideo - Openload - Streamango - Sendit - Userscloud - Tusfiles - Uptobox - 1fichier - Depositfiles


Solo Castellano con audio MP3 (5.55 GB)
Para ver online en estos servidores necesitas estar registrado y usar el navegador Google Chrome
Sendit - Userscloud


Reproductor



NOTA: Por favor, si los enlaces están caidos avisa en un comentario para poder resubirlos. Gracias

______________________________________________________
Saludos  Smile
avatar
Admin
Administrador
Administrador
Sexo : Masculino
Mensajes : 1159
Puntos : 3959
Reputación : 976
Fecha de inscripción : 02/04/2012
Localización : España

C.Ficción Re: Star Wars: Los últimos Jedi (2017) [Ver + Descargar] [HD 1080p] [Spa-Eng] [C.Ficción]

el Miér 16 Mayo 2018 - 1:27
16.05.2018

______________________________________________________
Saludos  Smile
Volver arriba
Permisos de este foro:
No puedes responder a temas en este foro.