Comparte
Ir abajo
avatar
Admin
Administrador
Administrador
Sexo : Masculino
Mensajes : 1056
Puntos : 3648
Reputación : 895
Fecha de inscripción : 02/04/2012
Localización : España

Fantástico Jumanji (1995) [Ver Online] [Descargar] [HD 1080p] [Spanish-English] [Fantástico]

el Vie 30 Mar 2018 - 20:26
Reputación del mensaje :100% (1 voto)

Ficha Técnica
SINOPSIS: Alan Parris queda atrapado durante 25 años en un juego de mesa mágico y muy antiguo llamado Jumanji. Cuando, por fin, es liberado por dos niños, una manada de animales exóticos queda también en libertad.
TÍTULO ORIGINAL: Jumanji
AÑO: [Tienes que estar registrado y conectado para ver este vínculo]
DURACIÓN: 104 min.
PAÍS: Estados Unidos
DIRECTOR: Joe Johnston
REPARTO: Robin Williams, Kirsten Dunst, David Alan Grier, Bonnie Hunt, Jonathan Hyde, Bradley Pierce, Bebe Neuwirth, Adam Hann-Byrd, Patricia Clarkson
GÉNERO: [Tienes que estar registrado y conectado para ver este vínculo] [Tienes que estar registrado y conectado para ver este vínculo] | Cine familiar. Juego

Capturas







Trailer

Info
CALIDAD DE VIDEO: BDRip m1080p MPEG4 Video (H264) 1920×1040
CALIDAD DE AUDIO 1: Castellano AC3 5.1 640 Kbps
CALIDAD DE AUDIO 2: Inglés AC3 5.1 448 Kbps
SUBTITULOS: Incluye forzados en español y completos en español e inglés.
TAMAÑO: 4.37 GiB
Mediainfo:
Format                      : Matroska
Format version              : Version 4 / Version 2
File size                   : 4.37 GiB
Duration                    : 1 h 44 min
Overall bit rate            : 6 009 kb/s
Movie name                  : Jumanji (1995) - [Tienes que estar registrado y conectado para ver este vínculo]
Encoded date                : UTC 2018-03-30 11:16:41
Writing application         : mkvmerge v21.0.0 ('Tardigrades Will Inherit The Earth') 64-bit
Writing library             : libebml v1.3.5 + libmatroska v1.4.8


Video
ID                          : 1
Format                      : AVC
Format/Info                 : Advanced Video Codec
Format profile              : High@L4.1
Format settings             : CABAC / 4 Ref Frames
Format settings, CABAC      : Yes
Format settings, RefFrames  : 4 frames
Codec ID                    : V_MPEG4/ISO/AVC
Duration                    : 1 h 44 min
Bit rate                    : 4 900 kb/s
Width                       : 1 920 pixels
Height                      : 1 040 pixels
Display aspect ratio        : 1.85:1
Frame rate mode             : Constant
Frame rate                  : 23.976 (24000/1001) FPS
Color space                 : YUV
Chroma subsampling          : 4:2:0
Bit depth                   : 8 bits
Scan type                   : Progressive
Bits/(Pixel*Frame)          : 0.102
Stream size                 : 3.56 GiB (81%)
Writing library             : x264 core 142 r2479 dd79a61
Default                     : Yes
Forced                      : Yes
Color range                 : Limited
Color primaries             : BT.709
Transfer characteristics    : BT.709
Matrix coefficients         : BT.709


Audio [Tienes que estar registrado y conectado para ver este vínculo]
ID                          : 2
Format                      : AC-3
Format/Info                 : Audio Coding 3
Format settings, Endianness : Big
Codec ID                    : A_AC3
Duration                    : 1 h 44 min
Bit rate mode               : Constant
Bit rate                    : 640 kb/s
Channel(s)                  : 6 channels
Channel positions           : Front: L C R, Side: L R, LFE
Sampling rate               : 48.0 kHz
Frame rate                  : 31.250 FPS (1536 SPF)
Bit depth                   : 16 bits
Compression mode            : Lossy
Delay relative to video     : -83 ms
Stream size                 : 477 MiB (11%)
Title                       : AC-3
Language                    : Spanish
Service kind                : Complete Main
Default                     : Yes
Forced                      : Yes


Audio [Tienes que estar registrado y conectado para ver este vínculo]
ID                          : 3
Format                      : AC-3
Format/Info                 : Audio Coding 3
Format settings, Endianness : Big
Codec ID                    : A_AC3
Duration                    : 1 h 44 min
Bit rate mode               : Constant
Bit rate                    : 448 kb/s
Channel(s)                  : 6 channels
Channel positions           : Front: L C R, Side: L R, LFE
Sampling rate               : 48.0 kHz
Frame rate                  : 31.250 FPS (1536 SPF)
Bit depth                   : 16 bits
Compression mode            : Lossy
Delay relative to video     : -83 ms
Stream size                 : 334 MiB (7%)
Title                       : AC-3
Language                    : English
Service kind                : Complete Main
Default                     : No
Forced                      : No


Text [Tienes que estar registrado y conectado para ver este vínculo]
ID                          : 4
Format                      : UTF-8
Codec ID                    : S_TEXT/UTF8
Codec ID/Info               : UTF-8 Plain Text
Duration                    : 1 h 36 min
Bit rate                    : 0 b/s
Count of elements           : 18
Stream size                 : 381 Bytes (0%)
Title                       : Forzados
Language                    : Spanish
Default                     : Yes
Forced                      : Yes


Text [Tienes que estar registrado y conectado para ver este vínculo]
ID                          : 5
Format                      : UTF-8
Codec ID                    : S_TEXT/UTF8
Codec ID/Info               : UTF-8 Plain Text
Duration                    : 1 h 37 min
Bit rate                    : 40 b/s
Count of elements           : 1009
Stream size                 : 28.7 KiB (0%)
Language                    : Spanish
Default                     : No
Forced                      : No


Text [Tienes que estar registrado y conectado para ver este vínculo]
ID                          : 6
Format                      : PGS
Muxing mode                 : zlib
Codec ID                    : S_HDMV/PGS
Codec ID/Info               : Picture based subtitle format used on BDs/HD-DVDs
Duration                    : 1 h 37 min
Bit rate                    : 22.7 kb/s
Count of elements           : 2015
Stream size                 : 15.8 MiB (0%)
Language                    : Spanish
Default                     : No
Forced                      : No


Text [Tienes que estar registrado y conectado para ver este vínculo]
ID                          : 7
Format                      : PGS
Muxing mode                 : zlib
Codec ID                    : S_HDMV/PGS
Codec ID/Info               : Picture based subtitle format used on BDs/HD-DVDs
Duration                    : 1 h 37 min
Bit rate                    : 32.1 kb/s
Count of elements           : 2720
Stream size                 : 22.5 MiB (1%)
Language                    : English
Default                     : No
Forced                      : No


Menu
00:00:00.000                : en:Chapter 1
00:08:17.205                : en:Chapter 2
00:15:17.541                : en:Chapter 3
00:20:29.019                : en:Chapter 4
00:28:11.189                : en:Chapter 5
00:33:07.110                : en:Chapter 6
00:41:06.755                : en:Chapter 7
00:45:01.323                : en:Chapter 8
00:48:23.358                : en:Chapter 9
00:55:13.018                : en:Chapter 10
01:00:24.787                : en:Chapter 11
01:08:21.138                : en:Chapter 12
01:16:12.609                : en:Chapter 13
01:23:27.585                : en:Chapter 14
01:28:55.955                : en:Chapter 15
01:34:51.268                : en:Chapter 16


Enlaces Descarga
[Tienes que estar registrado y conectado para ver este vínculo] - [Tienes que estar registrado y conectado para ver este vínculo] - [Tienes que estar registrado y conectado para ver este vínculo] - [Tienes que estar registrado y conectado para ver este vínculo] - [Tienes que estar registrado y conectado para ver este vínculo] - [Tienes que estar registrado y conectado para ver este vínculo] - [Tienes que estar registrado y conectado para ver este vínculo] - [Tienes que estar registrado y conectado para ver este vínculo] - [Tienes que estar registrado y conectado para ver este vínculo] - [Tienes que estar registrado y conectado para ver este vínculo] - [Tienes que estar registrado y conectado para ver este vínculo]


Enlaces Online
[Tienes que estar registrado y conectado para ver este vínculo] - [Tienes que estar registrado y conectado para ver este vínculo] - [Tienes que estar registrado y conectado para ver este vínculo] - [Tienes que estar registrado y conectado para ver este vínculo] - [Tienes que estar registrado y conectado para ver este vínculo] - [Tienes que estar registrado y conectado para ver este vínculo] - [Tienes que estar registrado y conectado para ver este vínculo]
Para ver online en Sendit y Userscloud necesitas estar registrado en su página y usar el navegador [Tienes que estar registrado y conectado para ver este vínculo]


Reproductor



NOTA: Por favor, si los enlaces están caidos avisa en un comentario para poder resubirlos. Gracias


Última edición por Admin el Vie 13 Abr 2018 - 22:05, editado 1 vez

______________________________________________________
Saludos  Smile
avatar
buker
Moderador
Moderador
Sexo : Masculino
Mensajes : 16
Puntos : 151
Reputación : 23
Fecha de inscripción : 30/10/2017

Fantástico Re: Jumanji (1995) [Ver Online] [Descargar] [HD 1080p] [Spanish-English] [Fantástico]

el Vie 13 Abr 2018 - 22:02
Reputación del mensaje :100% (1 voto)
13.04.2018

______________________________________________________
Saludos Cool
Volver arriba
Permisos de este foro:
No puedes responder a temas en este foro.