Comparte
Ir abajo
avatar
Admin
Administrador
Administrador
Sexo : Masculino
Mensajes : 1056
Puntos : 3648
Reputación : 895
Fecha de inscripción : 02/04/2012
Localización : España

Comedia Feliz Aniversario (2018) [Ver Online] [Descargar] [HD 1080p] [Castellano] [Comedia]

el Sáb 31 Mar 2018 - 9:40
Reputación del mensaje :100% (1 voto)

Ficha Técnica
SINOPSIS: Una excéntrica pareja se pasa el día de su tercer aniversario analizando su relación y planteándose si deberían seguir juntos.
TÍTULO ORIGINAL: Happy Anniversary
AÑO: [Tienes que estar registrado y conectado para ver este vínculo]
DURACIÓN: 78 min.
PAÍS: Estados Unidos
DIRECTOR: Jared Stern
REPARTO: Noël Wells, Ben Schwartz, Joe Pantoliano
GÉNERO: [Tienes que estar registrado y conectado para ver este vínculo]

Capturas



Trailer

Info
CALIDAD DE VIDEO: WEB-DL m1080p MPEG4 Video (H264) 1920×1080
CALIDAD DE AUDIO 1: Castellano AC3 5.1 448 Kbps
CALIDAD DE AUDIO 2: Inglés AC3 5.1 448 Kbps
SUBTITULOS: Incluye forzados en español y completos en español e inglés.
TAMAÑO: 3.13 GiB
Mediainfo:
Format                      : Matroska
Format version              : Version 4 / Version 2
File size                   : 3.13 GiB
Duration                    : 1 h 18 min
Overall bit rate mode       : Variable
Overall bit rate            : 5 727 kb/s
Movie name                  : Feliz aniversario - [Tienes que estar registrado y conectado para ver este vínculo]
Encoded date                : UTC 2018-03-30 22:41:46
Writing application         : mkvmerge v21.0.0 ('Tardigrades Will Inherit The Earth') 64-bit
Writing library             : libebml v1.3.5 + libmatroska v1.4.8


Video
ID                          : 1
Format                      : AVC
Format/Info                 : Advanced Video Codec
Format profile              : Main@L4
Format settings             : CABAC / 3 Ref Frames
Format settings, CABAC      : Yes
Format settings, RefFrames  : 3 frames
Codec ID                    : V_MPEG4/ISO/AVC
Duration                    : 1 h 18 min
Bit rate mode               : Variable
Bit rate                    : 4 870 kb/s
Maximum bit rate            : 7 305 kb/s
Width                       : 1 920 pixels
Height                      : 1 080 pixels
Display aspect ratio        : 16:9
Frame rate mode             : Constant
Frame rate                  : 23.976 (24000/1001) FPS
Color space                 : YUV
Chroma subsampling          : 4:2:0
Bit depth                   : 8 bits
Scan type                   : Progressive
Bits/(Pixel*Frame)          : 0.098
Stream size                 : 2.64 GiB (84%)
Writing library             : x264 core 148 r2714 2daf636
Default                     : Yes
Forced                      : Yes


Audio [Tienes que estar registrado y conectado para ver este vínculo]
ID                          : 2
Format                      : AC-3
Format/Info                 : Audio Coding 3
Format settings, Endianness : Big
Codec ID                    : A_AC3
Duration                    : 1 h 18 min
Bit rate mode               : Constant
Bit rate                    : 448 kb/s
Channel(s)                  : 6 channels
Channel positions           : Front: L C R, Side: L R, LFE
Sampling rate               : 48.0 kHz
Frame rate                  : 31.250 FPS (1536 SPF)
Bit depth                   : 16 bits
Compression mode            : Lossy
Stream size                 : 251 MiB (8%)
Title                       : AC-3
Language                    : Spanish
Service kind                : Complete Main
Default                     : Yes
Forced                      : Yes


Audio [Tienes que estar registrado y conectado para ver este vínculo]
ID                          : 3
Format                      : AC-3
Format/Info                 : Audio Coding 3
Format settings, Endianness : Big
Codec ID                    : A_AC3
Duration                    : 1 h 18 min
Bit rate mode               : Constant
Bit rate                    : 448 kb/s
Channel(s)                  : 6 channels
Channel positions           : Front: L C R, Side: L R, LFE
Sampling rate               : 48.0 kHz
Frame rate                  : 31.250 FPS (1536 SPF)
Bit depth                   : 16 bits
Compression mode            : Lossy
Stream size                 : 251 MiB (8%)
Title                       : AC-3
Language                    : English
Service kind                : Complete Main
Default                     : No
Forced                      : No


Text [Tienes que estar registrado y conectado para ver este vínculo]
ID                          : 4
Format                      : UTF-8
Codec ID                    : S_TEXT/UTF8
Codec ID/Info               : UTF-8 Plain Text
Duration                    : 1 h 17 min
Bit rate                    : 0 b/s
Count of elements           : 19
Stream size                 : 310 Bytes (0%)
Title                       : Forzados
Language                    : Spanish
Default                     : Yes
Forced                      : Yes


Text [Tienes que estar registrado y conectado para ver este vínculo]
ID                          : 5
Format                      : UTF-8
Codec ID                    : S_TEXT/UTF8
Codec ID/Info               : UTF-8 Plain Text
Duration                    : 1 h 17 min
Bit rate                    : 65 b/s
Count of elements           : 1309
Stream size                 : 36.9 KiB (0%)
Language                    : Spanish
Default                     : No
Forced                      : No


Text [Tienes que estar registrado y conectado para ver este vínculo]
ID                          : 6
Format                      : UTF-8
Codec ID                    : S_TEXT/UTF8
Codec ID/Info               : UTF-8 Plain Text
Duration                    : 1 h 13 min
Bit rate                    : 82 b/s
Count of elements           : 1278
Stream size                 : 44.2 KiB (0%)
Language                    : English
Default                     : No
Forced                      : No


Enlaces Descarga
[Tienes que estar registrado y conectado para ver este vínculo] - [Tienes que estar registrado y conectado para ver este vínculo] - [Tienes que estar registrado y conectado para ver este vínculo] - [Tienes que estar registrado y conectado para ver este vínculo] - [Tienes que estar registrado y conectado para ver este vínculo] - [Tienes que estar registrado y conectado para ver este vínculo] - [Tienes que estar registrado y conectado para ver este vínculo] - [Tienes que estar registrado y conectado para ver este vínculo] - [Tienes que estar registrado y conectado para ver este vínculo] - [Tienes que estar registrado y conectado para ver este vínculo] - [Tienes que estar registrado y conectado para ver este vínculo]


Enlaces Online
[Tienes que estar registrado y conectado para ver este vínculo] - [Tienes que estar registrado y conectado para ver este vínculo] - [Tienes que estar registrado y conectado para ver este vínculo] - [Tienes que estar registrado y conectado para ver este vínculo] - [Tienes que estar registrado y conectado para ver este vínculo] - [Tienes que estar registrado y conectado para ver este vínculo]
Para ver online en Sendit y Userscloud necesitas estar registrado en su página y usar el navegador [Tienes que estar registrado y conectado para ver este vínculo]


Reproductor



NOTA: Por favor, si los enlaces están caidos avisa en un comentario para poder resubirlos. Gracias

______________________________________________________
Saludos  Smile
Volver arriba
Permisos de este foro:
No puedes responder a temas en este foro.