Comparte
Ir abajo
avatar
Admin
Administrador
Administrador
Sexo : Masculino
Mensajes : 2363
Puntos : 7155
Reputación : 1324
Fecha de inscripción : 02/04/2012
Localización : España

Comedia Cantantes en guerra (2017) [Ver Online] [Descargar] [HD 1080p] [Latina] [Comedia]

el Sáb 31 Mar 2018 - 14:50
Reputación del mensaje :100% (1 voto)

Ficha Técnica
SINOPSIS: Ricardo (José María Listorti) y Miguel (Pedro Alfonso) son dos jóvenes amigos que forman un dúo musical. Convencidos de que tienen gran potencial, deciden presentarse a un casting para nuevos talentos musicales y mostrar las virtudes de su grupo. En el casting no quieren al dúo. Solo quieren a Ricardo, quien traiciona a Miguel, dejándolo afuera de la banda. Veinte años más tarde, Ricardo alias “Richie” será el artista Pop Latino número uno, y Miguel un profesor de música con pocos alumnos. Pero Miguel comenzará su carrera musical, y se desatará entre ellos la competencia más descabellada, delirante y divertida jamás vista.
TÍTULO ORIGINAL: Cantantes en guerra
AÑO: [Tienes que estar registrado y conectado para ver este vínculo]
DURACIÓN: 94 min.
PAÍS: Argentina
DIRECTOR: Fabián Forte
REPARTO: José María Listorti, Pedro Alfonso, Osvaldo Santoro, Miguel Ángel Rodríguez, Facundo Gambandé, Sebastián Presta, Inés Palombo, Diego Reinhold, Soledad García, Dady Brieva
GÉNERO: [Tienes que estar registrado y conectado para ver este vínculo] | [Tienes que estar registrado y conectado para ver este vínculo] [Tienes que estar registrado y conectado para ver este vínculo]

Capturas



Trailer

Info
CALIDAD DE VIDEO: BDRip m1080p MPEG4 Video (H264) 1920x804
CALIDAD DE AUDIO: Latino AC3 5.1 448 Kbps
TAMAÑO: 4.23 GiB
Mediainfo:
Format                      : Matroska
Format version              : Version 4 / Version 2
File size                   : 4.23 GiB
Duration                    : 1 h 33 min
Overall bit rate            : 6 453 kb/s
Movie name                  : Cantantes en guerra - [Tienes que estar registrado y conectado para ver este vínculo]
Encoded date                : UTC 2018-03-31 09:25:06
Writing application         : mkvmerge v21.0.0 ('Tardigrades Will Inherit The Earth') 64-bit
Writing library             : libebml v1.3.5 + libmatroska v1.4.8


Video
ID                          : 1
Format                      : AVC
Format/Info                 : Advanced Video Codec
Format profile              : High@L4.1
Format settings             : CABAC / 4 Ref Frames
Format settings, CABAC      : Yes
Format settings, RefFrames  : 4 frames
Codec ID                    : V_MPEG4/ISO/AVC
Duration                    : 1 h 33 min
Bit rate                    : 6 000 kb/s
Width                       : 1 920 pixels
Height                      : 804 pixels
Display aspect ratio        : 2.40:1
Frame rate mode             : Constant
Frame rate                  : 24.000 FPS
Color space                 : YUV
Chroma subsampling          : 4:2:0
Bit depth                   : 8 bits
Scan type                   : Progressive
Bits/(Pixel*Frame)          : 0.162
Stream size                 : 3.93 GiB (93%)
Writing library             : x264 core 148 r2708 86b7198
Language                    : Spanish
Default                     : Yes
Forced                      : Yes
Color range                 : Limited
Color primaries             : BT.709
Transfer characteristics    : BT.709
Matrix coefficients         : BT.709


Audio
ID                          : 2
Format                      : AC-3
Format/Info                 : Audio Coding 3
Format settings, Endianness : Big
Codec ID                    : A_AC3
Duration                    : 1 h 33 min
Bit rate mode               : Constant
Bit rate                    : 448 kb/s
Channel(s)                  : 6 channels
Channel positions           : Front: L C R, Side: L R, LFE
Sampling rate               : 48.0 kHz
Frame rate                  : 31.250 FPS (1536 SPF)
Bit depth                   : 16 bits
Compression mode            : Lossy
Delay relative to video     : -5 ms
Stream size                 : 301 MiB (7%)
Title                       : AC-3
Language                    : Spanish
Service kind                : Complete Main
Default                     : Yes
Forced                      : Yes


Enlaces Descarga
Uptobox - 1fichier - Dpositfiles - Rapidgator - Sendit - Userscloud - Wayupload - Downace


Enlaces Online
Rapidvideo - Openload - Vidoza - Streamango - Sendit - Userscloud - Downace
Para ver online en Sendit y Userscloud necesitas estar registrado en su página y usar el navegador Google Chrome


Reproductor



NOTA: Por favor, si los enlaces están caidos avisa en un comentario para poder resubirlos. Gracias

______________________________________________________
[Tienes que estar registrado y conectado para ver este vínculo]
Saludos  Smile
Volver arriba
Permisos de este foro:
No puedes responder a temas en este foro.