Comparte
Ir abajo
avatar
Admin
Administrador
Administrador
Sexo : Masculino
Mensajes : 1897
Puntos : 5823
Reputación : 1224
Fecha de inscripción : 02/04/2012
Localización : España

Fantástico La forma del agua (2017) [Ver Online] [Descargar] [HD 1080p] [Spa-Eng] [Fantástico]

el Sáb 31 Mar 2018 - 20:56
Reputación del mensaje :100% (3 votos)

Ficha Técnica
SINOPSIS: Elisa (Sally Hawkins) es una joven muda que trabaja como conserje en un laboratorio en 1963, en plena Guerra Fría, donde se enamorará de un hombre anfibio (Doug Jones) que se encuentra ahí recluido.
TÍTULO ORIGINAL: The Shape of Water
AÑO: [Tienes que estar registrado y conectado para ver este vínculo]
DURACIÓN: 119 min.
PAÍS: Estados Unidos
DIRECTOR: Guillermo del Toro
REPARTO: Sally Hawkins, Doug Jones, Michael Shannon, Octavia Spencer, Richard Jenkins, Michael Stuhlbarg, Lauren Lee Smith, David Hewlett, Nick Searcy, Morgan Kelly, Dru Viergever, Maxine Grossman, Amanda Smith, Cyndy Day, Dave Reachill
GÉNERO: [Tienes que estar registrado y conectado para ver este vínculo] [Tienes que estar registrado y conectado para ver este vínculo] [Tienes que estar registrado y conectado para ver este vínculo] [Tienes que estar registrado y conectado para ver este vínculo] | [Tienes que estar registrado y conectado para ver este vínculo]

Capturas



Trailer

Info
CALIDAD DE VIDEO: BDRip m1080p MPEG4 Video (H264) 1920×1080
CALIDAD DE AUDIO 1: Castellano DTS 5.1 768 Kbps
CALIDAD DE AUDIO 2: Castellano AC3 5.1 448 Kbps
CALIDAD DE AUDIO 3: Inglés AC3 5.1 448 Kbps
SUBTITULOS: Incluye completos en español e inglés y forzados en español.
TAMAÑO: 4.97 GiB
Mediainfo:
Format                      : Matroska
Format version              : Version 4 / Version 2
File size                   : 4.97 GiB
Duration                    : 2 h 3 min
Overall bit rate            : 5 771 kb/s
Movie name                  : La forma del agua - [Tienes que estar registrado y conectado para ver este vínculo]
Encoded date                : UTC 2018-03-31 13:08:23
Writing application         : mkvmerge v21.0.0 ('Tardigrades Will Inherit The Earth') 64-bit
Writing library             : libebml v1.3.5 + libmatroska v1.4.8


Video
ID                          : 1
Format                      : AVC
Format/Info                 : Advanced Video Codec
Format profile              : High@L4.1
Format settings             : CABAC / 2 Ref Frames
Format settings, CABAC      : Yes
Format settings, RefFrames  : 2 frames
Format settings, GOP        : M=3, N=24
Codec ID                    : V_MPEG4/ISO/AVC
Duration                    : 2 h 3 min
Bit rate                    : 4 100 kb/s
Width                       : 1 920 pixels
Height                      : 1 080 pixels
Display aspect ratio        : 16:9
Frame rate mode             : Constant
Frame rate                  : 23.976 (24000/1001) FPS
Color space                 : YUV
Chroma subsampling          : 4:2:0
Bit depth                   : 8 bits
Scan type                   : Progressive
Bits/(Pixel*Frame)          : 0.082
Stream size                 : 3.53 GiB (71%)
Writing library             : x264 core 142
Language                    : Spanish
Default                     : Yes
Forced                      : Yes
Color range                 : Limited
Color primaries             : BT.709
Transfer characteristics    : BT.709
Matrix coefficients         : BT.709


Audio [Tienes que estar registrado y conectado para ver este vínculo]
ID                          : 2
Format                      : DTS
Format/Info                 : Digital Theater Systems
Mode                        : 16
Format settings, Endianness : Big
Codec ID                    : A_DTS
Duration                    : 2 h 3 min
Bit rate mode               : Constant
Bit rate                    : 768 kb/s
Channel(s)                  : 6 channels
Channel positions           : Front: L C R, Side: L R, LFE
Sampling rate               : 48.0 kHz
Frame rate                  : 93.750 FPS (512 SPF)
Bit depth                   : 24 bits
Compression mode            : Lossy
Stream size                 : 677 MiB (13%)
Title                       : DTS
Language                    : Spanish
Default                     : Yes
Forced                      : Yes


Audio [Tienes que estar registrado y conectado para ver este vínculo]
ID                          : 3
Format                      : AC-3
Format/Info                 : Audio Coding 3
Format settings, Endianness : Big
Codec ID                    : A_AC3
Duration                    : 2 h 3 min
Bit rate mode               : Constant
Bit rate                    : 448 kb/s
Channel(s)                  : 6 channels
Channel positions           : Front: L C R, Side: L R, LFE
Sampling rate               : 48.0 kHz
Frame rate                  : 31.250 FPS (1536 SPF)
Bit depth                   : 16 bits
Compression mode            : Lossy
Stream size                 : 395 MiB (8%)
Title                       : AC-3
Language                    : Spanish
Service kind                : Complete Main
Default                     : No
Forced                      : No


Audio [Tienes que estar registrado y conectado para ver este vínculo]
ID                          : 4
Format                      : AC-3
Format/Info                 : Audio Coding 3
Format settings, Endianness : Big
Codec ID                    : A_AC3
Duration                    : 2 h 3 min
Bit rate mode               : Constant
Bit rate                    : 448 kb/s
Channel(s)                  : 6 channels
Channel positions           : Front: L C R, Side: L R, LFE
Sampling rate               : 48.0 kHz
Frame rate                  : 31.250 FPS (1536 SPF)
Bit depth                   : 16 bits
Compression mode            : Lossy
Stream size                 : 395 MiB (8%)
Title                       : AC-3
Language                    : English
Service kind                : Complete Main
Default                     : No
Forced                      : No


Text [Tienes que estar registrado y conectado para ver este vínculo]
ID                          : 5
Format                      : UTF-8
Codec ID                    : S_TEXT/UTF8
Codec ID/Info               : UTF-8 Plain Text
Duration                    : 1 h 56 min
Bit rate                    : 4 b/s
Count of elements           : 180
Stream size                 : 3.52 KiB (0%)
Title                       : Forzados
Language                    : Spanish
Default                     : Yes
Forced                      : Yes


Text [Tienes que estar registrado y conectado para ver este vínculo]
ID                          : 6
Format                      : PGS
Muxing mode                 : zlib
Codec ID                    : S_HDMV/PGS
Codec ID/Info               : Picture based subtitle format used on BDs/HD-DVDs
Duration                    : 2 h 1 min
Bit rate                    : 14.7 kb/s
Count of elements           : 2664
Stream size                 : 12.8 MiB (0%)
Language                    : Spanish
Default                     : No
Forced                      : No


Text [Tienes que estar registrado y conectado para ver este vínculo]
ID                          : 7
Format                      : UTF-8
Codec ID                    : S_TEXT/UTF8
Codec ID/Info               : UTF-8 Plain Text
Duration                    : 2 h 1 min
Bit rate                    : 44 b/s
Count of elements           : 1371
Stream size                 : 39.3 KiB (0%)
Language                    : Spanish
Default                     : No
Forced                      : No


Text [Tienes que estar registrado y conectado para ver este vínculo]
ID                          : 8
Format                      : UTF-8
Codec ID                    : S_TEXT/UTF8
Codec ID/Info               : UTF-8 Plain Text
Duration                    : 2 h 1 min
Bit rate                    : 48 b/s
Count of elements           : 1555
Stream size                 : 43.0 KiB (0%)
Language                    : English
Default                     : No
Forced                      : No


Menu
00:00:00.000                : en:00:00:00.000
00:06:24.467                : en:00:06:24.467
00:12:54.774                : en:00:12:54.774
00:18:32.987                : en:00:18:32.987
00:23:45.591                : en:00:23:45.591
00:29:39.653                : en:00:29:39.653
00:35:29.836                : en:00:35:29.836
00:39:30.535                : en:00:39:30.535
00:42:42.435                : en:00:42:42.435
00:48:34.036                : en:00:48:34.036
00:52:26.935                : en:00:52:26.935
00:57:30.197                : en:00:57:30.197
01:01:52.542                : en:01:01:52.542
01:07:35.551                : en:01:07:35.551
01:12:13.496                : en:01:12:13.496
01:17:50.791                : en:01:17:50.791
01:21:17.122                : en:01:21:17.122
01:26:05.911                : en:01:26:05.911
01:32:48.480                : en:01:32:48.480
01:37:18.750                : en:01:37:18.750
01:43:24.115                : en:01:43:24.115
01:46:06.610                : en:01:46:06.610
01:50:31.667                : en:01:50:31.667
01:58:34.858                : en:01:58:34.858


Enlaces Descarga
Tusfiles - Uptobox - 1fichier - Depositfiles - Rapidgator - Userscloud - Wayupload - Downace


Enlaces Online
Rapidvideo - Openload - Vidoza - Streamango - Userscloud - Filebebo - Downace
Para ver online en Sendit, Userscloud y Filebebo necesitas estar registrado en su página y usar el navegador Google Chrome


Reproductor



NOTA: Por favor, si los enlaces están caidos avisa en un comentario para poder resubirlos. Gracias


Última edición por Admin el Lun 9 Jul 2018 - 8:18, editado 1 vez
avatar
Admin
Administrador
Administrador
Sexo : Masculino
Mensajes : 1897
Puntos : 5823
Reputación : 1224
Fecha de inscripción : 02/04/2012
Localización : España

Fantástico Re: La forma del agua (2017) [Ver Online] [Descargar] [HD 1080p] [Spa-Eng] [Fantástico]

el Dom 24 Jun 2018 - 11:00
24.06.2018

______________________________________________________
[Tienes que estar registrado y conectado para ver este vínculo]
Saludos  Smile
elOcho32
Nuevo Flipax
Nuevo Flipax
Sexo : Masculino
Mensajes : 5
Puntos : 9
Reputación : 4
Fecha de inscripción : 03/01/2018
Localización : España

Fantástico Re: La forma del agua (2017) [Ver Online] [Descargar] [HD 1080p] [Spa-Eng] [Fantástico]

el Lun 9 Jul 2018 - 1:55
Reputación del mensaje :100% (1 voto)
Magnífica peli y excelente aporte. Gracias
Volver arriba
Permisos de este foro:
No puedes responder a temas en este foro.