Comparte
Ir abajo
avatar
Admin
Administrador
Administrador
Sexo : Masculino
Mensajes : 1344
Puntos : 4374
Reputación : 1056
Fecha de inscripción : 02/04/2012
Localización : España

Drama Resucitado (2016) [Ver Online] [Descargar] [HD 1080p] [Espanish - English] [Drama]

el Dom 1 Abr 2018 - 17:04
Reputación del mensaje :100% (1 voto)

Ficha Técnica
SINOPSIS: En Jerusalén el joven y ambicioso centurión romano Clavius recibe, por parte de Poncio Pilato, prefecto de Judea, la misión de investigar la misteriosa desaparición del cuerpo de Jesús, un predicador nazareno crucificado hace tres días, y los crecientes rumores sobre su resurrección.
TÍTULO ORIGINAL: Risen
AÑO: ~[Tienes que estar registrado y conectado para ver este vínculo]
DURACIÓN: 107 min.
PAÍS: Estados Unidos
DIRECTOR: Kevin Reynolds
REPARTO: Joseph Fiennes, Tom Felton, Cliff Curtis, Peter Firth, Stewart Scudamore, Luis Callejo, María Botto, Mish Boyko, Mark Killeen, Stephen Hagan, Stephen Greif, Jan Cornet, Joe Manjón, Antonio Gil, Richard Atwill, Andy Gathergood, Pepe Lorente, Selva Rasalingam, Stavros Demetraki, Manu Fullola, Mario Tardón, Àlex Maruny, Paco Manzanedo, Frida Cauchi, Tomás Pozzi
GÉNERO: [Tienes que estar registrado y conectado para ver este vínculo] | [Tienes que estar registrado y conectado para ver este vínculo] [Tienes que estar registrado y conectado para ver este vínculo] [Tienes que estar registrado y conectado para ver este vínculo]

Capturas



Trailer

Info
CALIDAD DE VIDEO: BDRip m1080p MPEG4 Video (H264) 1920×800
CALIDAD DE AUDIO 1: Castellano DTS 5.1 1509 Kbps
CALIDAD DE AUDIO 2: Castellano AC3 5.1 448 Kbps
CALIDAD DE AUDIO 3: Inglés AC3 5.1 448 Kbps
SUBTITULOS: Incluye completos en español e inglés.
TAMAÑO: 5.23 GiB
Mediainfo:
Format                      : Matroska
Format version              : Version 4 / Version 2
File size                   : 5.23 GiB
Duration                    : 1 h 47 min
Overall bit rate            : 6 955 kb/s
Movie name                  : Resucitado - [Tienes que estar registrado y conectado para ver este vínculo]
Encoded date                : UTC 2018-04-01 12:11:50
Writing application         : mkvmerge v21.0.0 ('Tardigrades Will Inherit The Earth') 64-bit
Writing library             : libebml v1.3.5 + libmatroska v1.4.8


Video
ID                          : 1
Format                      : AVC
Format/Info                 : Advanced Video Codec
Format profile              : High@L4.1
Format settings             : CABAC / 4 Ref Frames
Format settings, CABAC      : Yes
Format settings, RefFrames  : 4 frames
Codec ID                    : V_MPEG4/ISO/AVC
Duration                    : 1 h 47 min
Bit rate                    : 4 500 kb/s
Width                       : 1 920 pixels
Height                      : 800 pixels
Display aspect ratio        : 2.40:1
Frame rate mode             : Constant
Frame rate                  : 23.976 (24000/1001) FPS
Color space                 : YUV
Chroma subsampling          : 4:2:0
Bit depth                   : 8 bits
Scan type                   : Progressive
Bits/(Pixel*Frame)          : 0.122
Stream size                 : 3.38 GiB (65%)
Writing library             : x264 core 148 r2708 86b7198
Default                     : Yes
Forced                      : Yes
Color range                 : Limited
Color primaries             : BT.709
Transfer characteristics    : BT.709
Matrix coefficients         : BT.709


Audio [Tienes que estar registrado y conectado para ver este vínculo]
ID                          : 2
Format                      : DTS
Format/Info                 : Digital Theater Systems
Mode                        : 16
Format settings, Endianness : Big
Codec ID                    : A_DTS
Duration                    : 1 h 47 min
Bit rate mode               : Constant
Bit rate                    : 1 509 kb/s
Channel(s)                  : 6 channels
Channel positions           : Front: L C R, Side: L R, LFE
Sampling rate               : 48.0 kHz
Frame rate                  : 93.750 FPS (512 SPF)
Bit depth                   : 16 bits
Compression mode            : Lossy
Stream size                 : 1.13 GiB (22%)
Title                       : DTS
Language                    : Spanish
Default                     : Yes
Forced                      : Yes


Audio [Tienes que estar registrado y conectado para ver este vínculo]
ID                          : 3
Format                      : AC-3
Format/Info                 : Audio Coding 3
Format settings, Endianness : Big
Codec ID                    : A_AC3
Duration                    : 1 h 47 min
Bit rate mode               : Constant
Bit rate                    : 448 kb/s
Channel(s)                  : 6 channels
Channel positions           : Front: L C R, Side: L R, LFE
Sampling rate               : 48.0 kHz
Frame rate                  : 31.250 FPS (1536 SPF)
Bit depth                   : 16 bits
Compression mode            : Lossy
Stream size                 : 345 MiB (6%)
Title                       : AC-3
Language                    : Spanish
Service kind                : Complete Main
Default                     : No
Forced                      : No


Audio [Tienes que estar registrado y conectado para ver este vínculo]
ID                          : 4
Format                      : AC-3
Format/Info                 : Audio Coding 3
Format settings, Endianness : Big
Codec ID                    : A_AC3
Duration                    : 1 h 47 min
Bit rate mode               : Constant
Bit rate                    : 448 kb/s
Channel(s)                  : 6 channels
Channel positions           : Front: L C R, Side: L R, LFE
Sampling rate               : 48.0 kHz
Frame rate                  : 31.250 FPS (1536 SPF)
Bit depth                   : 16 bits
Compression mode            : Lossy
Stream size                 : 345 MiB (6%)
Title                       : AC-3
Language                    : English
Service kind                : Complete Main
Default                     : No
Forced                      : No


Text [Tienes que estar registrado y conectado para ver este vínculo]
ID                          : 5
Format                      : UTF-8
Codec ID                    : S_TEXT/UTF8
Codec ID/Info               : UTF-8 Plain Text
Duration                    : 1 h 46 min
Bit rate                    : 35 b/s
Count of elements           : 962
Stream size                 : 27.4 KiB (0%)
Language                    : Spanish
Default                     : No
Forced                      : No


Text [Tienes que estar registrado y conectado para ver este vínculo]
ID                          : 6
Format                      : PGS
Muxing mode                 : zlib
Codec ID                    : S_HDMV/PGS
Codec ID/Info               : Picture based subtitle format used on BDs/HD-DVDs
Duration                    : 1 h 39 min
Bit rate                    : 23.3 kb/s
Count of elements           : 1981
Stream size                 : 16.6 MiB (0%)
Language                    : English
Default                     : No
Forced                      : No


Text [Tienes que estar registrado y conectado para ver este vínculo]
ID                          : 7
Format                      : PGS
Muxing mode                 : zlib
Codec ID                    : S_HDMV/PGS
Codec ID/Info               : Picture based subtitle format used on BDs/HD-DVDs
Duration                    : 1 h 39 min
Bit rate                    : 29.6 kb/s
Count of elements           : 2479
Stream size                 : 21.1 MiB (0%)
Language                    : English
Default                     : No
Forced                      : No


Text [Tienes que estar registrado y conectado para ver este vínculo]
ID                          : 8
Format                      : PGS
Muxing mode                 : zlib
Codec ID                    : S_HDMV/PGS
Codec ID/Info               : Picture based subtitle format used on BDs/HD-DVDs
Duration                    : 1 h 47 min
Bit rate                    : 22.1 kb/s
Count of elements           : 2000
Stream size                 : 17.0 MiB (0%)
Language                    : Spanish
Default                     : No
Forced                      : No


Text [Tienes que estar registrado y conectado para ver este vínculo]
ID                          : 9
Format                      : PGS
Muxing mode                 : zlib
Codec ID                    : S_HDMV/PGS
Codec ID/Info               : Picture based subtitle format used on BDs/HD-DVDs
Duration                    : 1 h 42 min
Bit rate                    : 51.6 kb/s
Count of elements           : 3101
Stream size                 : 37.9 MiB (1%)
Language                    : English
Default                     : No
Forced                      : No


Text [Tienes que estar registrado y conectado para ver este vínculo]
ID                          : 10
Format                      : PGS
Muxing mode                 : zlib
Codec ID                    : S_HDMV/PGS
Codec ID/Info               : Picture based subtitle format used on BDs/HD-DVDs
Duration                    : 1 h 42 min
Bit rate                    : 48.7 kb/s
Count of elements           : 3103
Stream size                 : 35.7 MiB (1%)
Language                    : Spanish
Default                     : No
Forced                      : No


Menu
00:00:00.000                : en:Chapter 1
00:06:50.243                : en:Chapter 2
00:14:18.732                : en:Chapter 3
00:21:48.181                : en:Chapter 4
00:27:35.195                : en:Chapter 5
00:33:21.082                : en:Chapter 6
00:40:03.984                : en:Chapter 7
00:46:19.193                : en:Chapter 8
00:54:06.243                : en:Chapter 9
01:00:06.477                : en:Chapter 10
01:07:53.027                : en:Chapter 11
01:13:54.847                : en:Chapter 12
01:19:46.656                : en:Chapter 13
01:25:42.387                : en:Chapter 14
01:33:16.132                : en:Chapter 15
01:38:41.832                : en:Chapter 16


Enlaces Descarga
Tusfiles - Uptobox - Depositfiles - 1fichier - Sendit - Userscloud


Enlaces Online
Rapidvideo - Openload - Vidoza - Streamango - Sendit - Userscloud - Filebebo - Downace
Para ver online en Sendit, Userscloud y Filebebo necesitas estar registrado en su página y usar el navegador Google Chrome


NOTA: Por favor, si los enlaces están caidos avisa en un comentario para poder resubirlos. Gracias

______________________________________________________
Saludos  Smile
Volver arriba
Permisos de este foro:
No puedes responder a temas en este foro.