Comparte
Ir abajo
avatar
Admin
Administrador
Administrador
Sexo : Masculino
Mensajes : 1344
Puntos : 4374
Reputación : 1056
Fecha de inscripción : 02/04/2012
Localización : España

C.Ficción Revolt (2017) [Ver Online] [Descargar] [HD 1080p] [Spanish-English] [C.Ficción]

el Lun 2 Abr 2018 - 21:40
Reputación del mensaje :100% (1 voto)

Ficha Técnica
SINOPSIS: La historia de la última batalla entre la humanidad y una invasión alienígena. Ambientada en el continente africano, un soldado de EE. UU. y una ayudante francesa se unen para sobrevivir. Su unión será puesta a prueba mientras buscan refugio.
TÍTULO ORIGINAL: Revolt
AÑO: [Tienes que estar registrado y conectado para ver este vínculo]
DURACIÓN: 87 min.
PAÍS: Reino Unido
DIRECTOR: Joe Miale
REPARTO: Lee Pace, Bérénice Marlohe, Amy Louise Wilson, Alan Santini, Tom Fairfoot, Kenneth Fok, Edwin Jay, Barileng Malebye, Noko ‘Flow’ Mabitsela, Carl Roddam, Ingmar Büchner, Steven Ward
GÉNERO: [Tienes que estar registrado y conectado para ver este vínculo] [Tienes que estar registrado y conectado para ver este vínculo] | [Tienes que estar registrado y conectado para ver este vínculo]

Capturas



Trailer

Info
CALIDAD DE VIDEO: BDRip m1080p MPEG4 Video (H264) 1920×804
CALIDAD DE AUDIO 1: Castellano AC3 5.1 448 Kbps
CALIDAD DE AUDIO 2: Inglés AC3 5.1 640 Kbps
SUBTITULOS: Incluye completos y forzados en español (forzados pagados al video).
TAMAÑO: 4.74 GiB
Mediainfo:
Format                      : Matroska
Format version              : Version 4 / Version 2
File size                   : 4.74 GiB
Duration                    : 1 h 27 min
Overall bit rate            : 7 755 kb/s
Movie name                  : Revolt - [Tienes que estar registrado y conectado para ver este vínculo]
Encoded date                : UTC 2018-04-01 16:10:19
Writing application         : mkvmerge v21.0.0 ('Tardigrades Will Inherit The Earth') 64-bit
Writing library             : libebml v1.3.5 + libmatroska v1.4.8


Video
ID                          : 1
Format                      : AVC
Format/Info                 : Advanced Video Codec
Format profile              : High@L4.1
Format settings             : CABAC / 4 Ref Frames
Format settings, CABAC      : Yes
Format settings, RefFrames  : 4 frames
Codec ID                    : V_MPEG4/ISO/AVC
Duration                    : 1 h 27 min
Bit rate                    : 7 000 kb/s
Width                       : 1 920 pixels
Height                      : 804 pixels
Display aspect ratio        : 2.40:1
Frame rate mode             : Constant
Frame rate                  : 23.976 (24000/1001) FPS
Color space                 : YUV
Chroma subsampling          : 4:2:0
Bit depth                   : 8 bits
Scan type                   : Progressive
Bits/(Pixel*Frame)          : 0.189
Stream size                 : 4.07 GiB (86%)
Writing library             : x264 core 148 r2708 86b7198
Default                     : Yes
Forced                      : Yes
Color range                 : Limited
Color primaries             : BT.709
Transfer characteristics    : BT.709
Matrix coefficients         : BT.709


Audio [Tienes que estar registrado y conectado para ver este vínculo]
ID                          : 2
Format                      : AC-3
Format/Info                 : Audio Coding 3
Format settings, Endianness : Big
Codec ID                    : A_AC3
Duration                    : 1 h 27 min
Bit rate mode               : Constant
Bit rate                    : 448 kb/s
Channel(s)                  : 6 channels
Channel positions           : Front: L C R, Side: L R, LFE
Sampling rate               : 48.0 kHz
Frame rate                  : 31.250 FPS (1536 SPF)
Bit depth                   : 16 bits
Compression mode            : Lossy
Delay relative to video     : 1 s 0 ms
Stream size                 : 280 MiB (6%)
Title                       : AC-3
Language                    : Spanish
Service kind                : Complete Main
Default                     : Yes
Forced                      : Yes


Audio [Tienes que estar registrado y conectado para ver este vínculo]
ID                          : 3
Format                      : AC-3
Format/Info                 : Audio Coding 3
Format settings, Endianness : Big
Codec ID                    : A_AC3
Duration                    : 1 h 27 min
Bit rate mode               : Constant
Bit rate                    : 640 kb/s
Channel(s)                  : 6 channels
Channel positions           : Front: L C R, Side: L R, LFE
Sampling rate               : 48.0 kHz
Frame rate                  : 31.250 FPS (1536 SPF)
Bit depth                   : 16 bits
Compression mode            : Lossy
Stream size                 : 399 MiB (8%)
Title                       : AC-3
Language                    : English
Service kind                : Complete Main
Default                     : No
Forced                      : No


Text
ID                          : 4
Format                      : UTF-8
Codec ID                    : S_TEXT/UTF8
Codec ID/Info               : UTF-8 Plain Text
Duration                    : 1 h 21 min
Bit rate                    : 32 b/s
Count of elements           : 571
Stream size                 : 19.4 KiB (0%)
Language                    : Spanish
Default                     : No
Forced                      : No


Menu
00:00:00.000                : en:Chapter 1
00:11:27.729                : en:Chapter 2
00:17:25.920                : en:Chapter 3
00:23:08.846                : en:Chapter 4
00:28:13.317                : en:Chapter 5
00:35:12.694                : en:Chapter 6
00:43:15.676                : en:Chapter 7
00:52:20.679                : en:Chapter 8
00:59:06.001                : en:Chapter 9
01:06:07.172                : en:Chapter 10
01:14:04.357                : en:Chapter 11
01:22:54.595                : en:Chapter 12


Enlaces Descarga
Tusfiles - Uptobox - 1fichier - Depositfiles - Filebebo - Rapidgator - Sendit - Userscloud - Wayupload


Enlaces Online
Rapidvideo - Openload - Vidoza - Streamango - Vidlox - Sendit - Userscloud - Filebebo - Downace
Para ver online en Sendit, Userscloud y Filebebo necesitas estar registrado en su página y usar el navegador Google Chrome


NOTA: Por favor, si los enlaces están caidos avisa en un comentario para poder resubirlos. Gracias

______________________________________________________
Saludos  Smile
Volver arriba
Permisos de este foro:
No puedes responder a temas en este foro.