Comparte
Ir abajo
avatar
Admin
Administrador
Administrador
Sexo : Masculino
Mensajes : 2206
Puntos : 6738
Reputación : 1320
Fecha de inscripción : 02/04/2012
Localización : España

Terror Los olvidados (2017) [Ver Online] [Descargar] [HD 1080p] [Latina] [Terror]

el Mar 3 Abr 2018 - 22:50
Reputación del mensaje :100% (2 votos)

Ficha Técnica
SINOPSIS: Un grupo de jóvenes parte a las ruinas de Epecuén para filmar un documental sobre los fatídicos acontecimientos que borraron del mapa a esa localidad argentina en los años ochenta. Ignorando las advertencias, quedan varados en el pueblo abandonado. Contrariamente a lo que pensaban, comienzan a darse cuenta de que realmente no están solos.
TÍTULO ORIGINAL: What the Waters Left Behind
AÑO: [Tienes que estar registrado y conectado para ver este vínculo]
DURACIÓN: 98 min.
PAÍS: Argentina
DIRECTOR: Luciano Onetti, Nicolás Onetti
REPARTO: Mirta Busnelli, Gustavo Garzon, Agustin Pardella, Victoria Maurette, Victorio D’Alessandro, Damian Dreizik, Paula Brasca, Paula Sartor, Chucho Fernandez, German Baudino, Evan Leed, Tamara Garzon, Pablo Guisa Koestinger
GÉNERO: [Tienes que estar registrado y conectado para ver este vínculo] | [Tienes que estar registrado y conectado para ver este vínculo]

Capturas



Trailer

Info
CALIDAD DE VIDEO: WEB-DL m1080p MPEG4 Video (H264) 1920×768
CALIDAD DE AUDIO: Latino AC3 2.0 448 kbps
TAMAÑO: 3.21 GiB
Mediainfo:
Format                      : Matroska
Format version              : Version 4 / Version 2
File size                   : 3.21 GiB
Duration                    : 1 h 33 min
Overall bit rate            : 4 915 kb/s
Movie name                  : Los Olvidados - [Tienes que estar registrado y conectado para ver este vínculo]
Encoded date                : UTC 2018-04-02 20:35:07
Writing application         : mkvmerge v22.0.0 ('At The End Of The World') 64-bit
Writing library             : libebml v1.3.5 + libmatroska v1.4.8


Video
ID                          : 1
Format                      : AVC
Format/Info                 : Advanced Video Codec
Format profile              : Baseline@L4.1
Format settings             : 1 Ref Frames
Format settings, CABAC      : No
Format settings, RefFrames  : 1 frame
Codec ID                    : V_MPEG4/ISO/AVC
Duration                    : 1 h 33 min
Bit rate                    : 4 500 kb/s
Width                       : 1 920 pixels
Height                      : 768 pixels
Display aspect ratio        : 2.500
Frame rate mode             : Constant
Frame rate                  : 23.976 (24000/1001) FPS
Color space                 : YUV
Chroma subsampling          : 4:2:0
Bit depth                   : 8 bits
Scan type                   : Progressive
Bits/(Pixel*Frame)          : 0.127
Stream size                 : 2.91 GiB (91%)
Writing library             : x264 core 148 r2708 86b7198
Encoding settings           : cabac=0 / ref=1 / deblock=0:0:0 / analyse=0:0 / me=dia / subme=0 / psy=1 / psy_rd=1.00:0.00 / mixed_ref=0 / me_range=16 / chroma_me=1 / trellis=0 / 8x8dct=0 / cqm=0 / deadzone=21,11 / fast_pskip=1 / chroma_qp_offset=0 / threads=12 / lookahead_threads=2 / sliced_threads=0 / nr=0 / decimate=1 / interlaced=0 / bluray_compat=0 / constrained_intra=0 / bframes=0 / weightp=0 / keyint=240 / keyint_min=24 / scenecut=0 / intra_refresh=0 / rc_lookahead=0 / rc=abr / mbtree=0 / bitrate=4500 / ratetol=1.0 / qcomp=0.60 / qpmin=0 / qpmax=69 / qpstep=4 / vbv_maxrate=50000 / vbv_bufsize=62500 / nal_hrd=none / filler=0 / ip_ratio=1.40 / aq=0
Default                     : Yes
Forced                      : Yes
Color range                 : Limited
Color primaries             : BT.709
Transfer characteristics    : BT.709
Matrix coefficients         : BT.709


Audio
ID                          : 2
Format                      : AC-3
Format/Info                 : Audio Coding 3
Format settings, Endianness : Big
Codec ID                    : A_AC3
Duration                    : 1 h 33 min
Bit rate mode               : Constant
Bit rate                    : 448 kb/s
Channel(s)                  : 2 channels
Channel positions           : Front: L R
Sampling rate               : 48.0 kHz
Frame rate                  : 31.250 FPS (1536 SPF)
Bit depth                   : 16 bits
Compression mode            : Lossy
Stream size                 : 299 MiB (9%)
Title                       : AC-3
Language                    : Spanish
Service kind                : Complete Main
Default                     : Yes
Forced                      : Yes


Enlaces Descarga
Tusfiles - Uptobox - 1fichier - Depositfiles - Filebebo - Hitfile - Rapidgator - Sendit - Turbobit - Userscloud - Wayupload - Downace


Enlaces Online
Rapidvideo - Openload - Vidoza - Streamango - Sendit - Userscloud - Filebebo - Downace - Vidlox
Para ver online en Sendit, Userscloud y Filebebo necesitas estar registrado en su página y usar el navegador Google Chrome


NOTA: Por favor, si los enlaces están caidos avisa en un comentario para poder resubirlos. Gracias

______________________________________________________
[Tienes que estar registrado y conectado para ver este vínculo]
Saludos  Smile
Volver arriba
Permisos de este foro:
No puedes responder a temas en este foro.