Comparte
Ir abajo
avatar
Admin
Administrador
Administrador
Sexo : Masculino
Mensajes : 1056
Puntos : 3648
Reputación : 895
Fecha de inscripción : 02/04/2012
Localización : España

Acción Contract Killers (2013) [Ver Online] [Descargar] [Hd 1080p] [Spanish - English] [Acción]

el Vie 6 Abr 2018 - 0:58
Reputación del mensaje :100% (1 voto)

Ficha Técnica
SINOPSIS: Un asesino eficiente pero arrogante sólo tiene una noche para emboscar y matar meticulosamente a un equipo de vigilantes que están atacando a los traficantes de drogas de la ciudad. Todo va según lo previsto hasta que el asesino se encuentre con Marshall, un recién llegado con habilidades naturales que sobrevive al ataque, y ahora está decidido a detenerlo.
TÍTULO ORIGINAL: Contract Killers
AÑO: [Tienes que estar registrado y conectado para ver este vínculo]
DURACIÓN: 95 min.
PAÍS: Nueva Zelanda
DIRECTOR: Mathew John Pearson
REPARTO: James Trevena-Brown, Renee Cataldo, Rob Young, Dallas Barnett, Luke Hawker, Logan Pithyou, Scott Edward Jackson
GÉNERO: [Tienes que estar registrado y conectado para ver este vínculo] [Tienes que estar registrado y conectado para ver este vínculo] | [Tienes que estar registrado y conectado para ver este vínculo]

Capturas



Trailer

Info
CALIDAD DE VIDEO: BDRip m1080p MPEG4 Video (H264) 1920×824
CALIDAD DE AUDIO 1: Castellano AC3 2.0 448 Kbps
CALIDAD DE AUDIO 2: Inglés AC3 5.1 448 Kbps
TAMAÑO: 4.51 GiB
Mediainfo:
Format                      : Matroska
Format version              : Version 4 / Version 2
File size                   : 4.51 GiB
Duration                    : 1 h 34 min
Overall bit rate            : 6 809 kb/s
Movie name                  : Contract Killers - [Tienes que estar registrado y conectado para ver este vínculo]
Encoded date                : UTC 2018-04-03 22:43:47
Writing application         : mkvmerge v22.0.0 ('At The End Of The World') 64-bit
Writing library             : libebml v1.3.5 + libmatroska v1.4.8


Video
ID                          : 1
Format                      : AVC
Format/Info                 : Advanced Video Codec
Format profile              : High@L4.1
Format settings             : CABAC / 4 Ref Frames
Format settings, CABAC      : Yes
Format settings, RefFrames  : 4 frames
Codec ID                    : V_MPEG4/ISO/AVC
Duration                    : 1 h 34 min
Bit rate                    : 6 000 kb/s
Width                       : 1 920 pixels
Height                      : 824 pixels
Display aspect ratio        : 2.35:1
Frame rate mode             : Constant
Frame rate                  : 25.000 FPS
Color space                 : YUV
Chroma subsampling          : 4:2:0
Bit depth                   : 8 bits
Scan type                   : Progressive
Bits/(Pixel*Frame)          : 0.152
Stream size                 : 3.91 GiB (87%)
Writing library             : x264 core 148 r2708 86b7198
Default                     : Yes
Forced                      : Yes
Color range                 : Limited
Color primaries             : BT.709
Transfer characteristics    : BT.709
Matrix coefficients         : BT.709


Audio [Tienes que estar registrado y conectado para ver este vínculo]
ID                          : 2
Format                      : AC-3
Format/Info                 : Audio Coding 3
Format settings, Endianness : Big
Codec ID                    : A_AC3
Duration                    : 1 h 34 min
Bit rate mode               : Constant
Bit rate                    : 448 kb/s
Channel(s)                  : 2 channels
Channel positions           : Front: L R
Sampling rate               : 48.0 kHz
Frame rate                  : 31.250 FPS (1536 SPF)
Bit depth                   : 16 bits
Compression mode            : Lossy
Delay relative to video     : -5 ms
Stream size                 : 304 MiB (7%)
Title                       : AC-3
Language                    : Spanish
Service kind                : Complete Main
Default                     : Yes
Forced                      : Yes


Audio [Tienes que estar registrado y conectado para ver este vínculo]
ID                          : 3
Format                      : AC-3
Format/Info                 : Audio Coding 3
Format settings, Endianness : Big
Codec ID                    : A_AC3
Duration                    : 1 h 34 min
Bit rate mode               : Constant
Bit rate                    : 448 kb/s
Channel(s)                  : 6 channels
Channel positions           : Front: L C R, Side: L R, LFE
Sampling rate               : 48.0 kHz
Frame rate                  : 31.250 FPS (1536 SPF)
Bit depth                   : 16 bits
Compression mode            : Lossy
Delay relative to video     : -5 ms
Stream size                 : 304 MiB (7%)
Title                       : AC-3
Language                    : English
Service kind                : Complete Main
Default                     : No
Forced                      : No


Menu
00:00:00.000                : en:Chapter 1
00:09:29.840                : en:Chapter 2
00:17:08.440                : en:Chapter 3
00:28:48.720                : en:Chapter 4
00:38:54.200                : en:Chapter 5
00:44:34.040                : en:Chapter 6
00:59:52.200                : en:Chapter 7
01:09:49.480                : en:Chapter 8
01:29:59.960                : en:Chapter 9


Enlaces Descarga
[Tienes que estar registrado y conectado para ver este vínculo] - [Tienes que estar registrado y conectado para ver este vínculo] - [Tienes que estar registrado y conectado para ver este vínculo] - [Tienes que estar registrado y conectado para ver este vínculo] - [Tienes que estar registrado y conectado para ver este vínculo] - [Tienes que estar registrado y conectado para ver este vínculo] - [Tienes que estar registrado y conectado para ver este vínculo] - [Tienes que estar registrado y conectado para ver este vínculo] - [Tienes que estar registrado y conectado para ver este vínculo]


Enlaces Online
[Tienes que estar registrado y conectado para ver este vínculo] - [Tienes que estar registrado y conectado para ver este vínculo] - [Tienes que estar registrado y conectado para ver este vínculo] - [Tienes que estar registrado y conectado para ver este vínculo] - [Tienes que estar registrado y conectado para ver este vínculo] - [Tienes que estar registrado y conectado para ver este vínculo] - [Tienes que estar registrado y conectado para ver este vínculo] - [Tienes que estar registrado y conectado para ver este vínculo] - [Tienes que estar registrado y conectado para ver este vínculo]
Para ver online en Sendit, Userscloud y Filebebo necesitas estar registrado en su página y usar el navegador [Tienes que estar registrado y conectado para ver este vínculo]


Reproductor



NOTA: Por favor, si los enlaces están caidos avisa en un comentario para poder resubirlos. Gracias

______________________________________________________
Saludos  Smile
Volver arriba
Permisos de este foro:
No puedes responder a temas en este foro.