Comparte
Ir abajo
avatar
Admin
Administrador
Administrador
Sexo : Masculino
Mensajes : 690
Puntos : 2458
Reputación : 609
Fecha de inscripción : 02/04/2012
Localización : España

Thriller Brawl in Cell Block 99 (2017) [Ver Online] [Descargar] [HD 1080p] [Spa-Eng] [Thriller]

el Vie 6 Abr 2018 - 1:47
Reputación del mensaje :100% (1 voto)

Ficha Técnica
SINOPSIS: Bradley es un exboxeador con un matrimonio a punto de romperse que pierde su empleo como mecánico de coches. Debido a esta sensación pesimista, acaba decidiendo que su mejor opción es trabajar para un viejo amigo como traficante de drogas. Esta decisión mejorará su vida hasta que se ve envuelto en un tiroteo entre la policía y sus aliados; situación que le acaba llevando a la cárcel…
TÍTULO ORIGINAL: Brawl in Cell Block 99
AÑO: 2017
DURACIÓN: 132 min.
PAÍS: Estados Unidos
DIRECTOR: S. Craig Zahler
REPARTO: Vince Vaughn, Jennifer Carpenter, Marc Blucas, Don Johnson, Tom Guiry, Udo Kier, Dan Amboyer, Mustafa Shakir, Fred Melamed, Geno Segers, Clark Johnson, Rob Morgan, Pooja Kumar, Philip Ettinger, Michael Medeiros, Jay Hieron, Gabriel Sloyer, Victor Almanzar, Vladimir Troitsky, Larry Mitchell
GÉNERO: [Tienes que estar registrado y conectado para ver este vínculo] [Tienes que estar registrado y conectado para ver este vínculo] | Drama carcelario. [Tienes que estar registrado y conectado para ver este vínculo] Neo-noir. Cine independiente USA

Capturas



Trailer

Info
CALIDAD DE VIDEO: BDRip m1080p MPEG4 Video (H264) 1920×1038
CALIDAD DE AUDIO 1: Castellano DTS 5.1 768 Kbps
CALIDAD DE AUDIO 2: Castellano AC3 5.1 448 Kbps
CALIDAD DE AUDIO 3: Inglés AC3 5.1 448 Kbps
SUBTITULOS: Incluye forzados en español y completos en español e inglés.
TAMAÑO: 5.60 GiB
Mediainfo:
Format                      : Matroska
Format version              : Version 4 / Version 2
File size                   : 5.60 GiB
Duration                    : 2 h 12 min
Overall bit rate            : 6 051 kb/s
Movie name                  : Brawl in Cell Block 99 - [Tienes que estar registrado y conectado para ver este vínculo]
Encoded date                : UTC 2018-04-05 00:12:37
Writing application         : mkvmerge v22.0.0 ('At The End Of The World') 64-bit
Writing library             : libebml v1.3.5 + libmatroska v1.4.8


Video
ID                          : 1
Format                      : AVC
Format/Info                 : Advanced Video Codec
Format profile              : High@L4.1
Format settings             : CABAC / 4 Ref Frames
Format settings, CABAC      : Yes
Format settings, RefFrames  : 4 frames
Codec ID                    : V_MPEG4/ISO/AVC
Duration                    : 2 h 12 min
Bit rate                    : 4 384 kb/s
Width                       : 1 920 pixels
Height                      : 1 038 pixels
Display aspect ratio        : 1.85:1
Frame rate mode             : Constant
Frame rate                  : 23.976 (24000/1001) FPS
Color space                 : YUV
Chroma subsampling          : 4:2:0
Bit depth                   : 8 bits
Scan type                   : Progressive
Bits/(Pixel*Frame)          : 0.092
Stream size                 : 4.05 GiB (72%)
Writing library             : x264 core 155 r2901 7d0ff22
Default                     : Yes
Forced                      : Yes


Audio [Tienes que estar registrado y conectado para ver este vínculo]
ID                          : 2
Format                      : DTS
Format/Info                 : Digital Theater Systems
Mode                        : 16
Format settings, Endianness : Big
Codec ID                    : A_DTS
Duration                    : 2 h 12 min
Bit rate mode               : Constant
Bit rate                    : 768 kb/s
Channel(s)                  : 6 channels
Channel positions           : Front: L C R, Side: L R, LFE
Sampling rate               : 48.0 kHz
Frame rate                  : 93.750 FPS (512 SPF)
Bit depth                   : 16 bits
Compression mode            : Lossy
Stream size                 : 727 MiB (13%)
Title                       : DTS
Language                    : Spanish
Default                     : Yes
Forced                      : Yes


Audio [Tienes que estar registrado y conectado para ver este vínculo]
ID                          : 3
Format                      : AC-3
Format/Info                 : Audio Coding 3
Format settings, Endianness : Big
Codec ID                    : A_AC3
Duration                    : 2 h 12 min
Bit rate mode               : Constant
Bit rate                    : 448 kb/s
Channel(s)                  : 6 channels
Channel positions           : Front: L C R, Side: L R, LFE
Sampling rate               : 48.0 kHz
Frame rate                  : 31.250 FPS (1536 SPF)
Bit depth                   : 16 bits
Compression mode            : Lossy
Stream size                 : 424 MiB (7%)
Title                       : AC-3
Language                    : Spanish
Service kind                : Complete Main
Default                     : No
Forced                      : No


Audio [Tienes que estar registrado y conectado para ver este vínculo]
ID                          : 4
Format                      : AC-3
Format/Info                 : Audio Coding 3
Format settings, Endianness : Big
Codec ID                    : A_AC3
Duration                    : 2 h 12 min
Bit rate mode               : Constant
Bit rate                    : 448 kb/s
Channel(s)                  : 6 channels
Channel positions           : Front: L C R, Side: L R, LFE
Sampling rate               : 48.0 kHz
Frame rate                  : 31.250 FPS (1536 SPF)
Bit depth                   : 16 bits
Compression mode            : Lossy
Stream size                 : 424 MiB (7%)
Title                       : AC-3
Language                    : English
Service kind                : Complete Main
Default                     : No
Forced                      : No


Text [Tienes que estar registrado y conectado para ver este vínculo]
ID                          : 5
Format                      : UTF-8
Codec ID                    : S_TEXT/UTF8
Codec ID/Info               : UTF-8 Plain Text
Duration                    : 1 h 20 min
Bit rate                    : 0 b/s
Count of elements           : 8
Stream size                 : 155 Bytes (0%)
Title                       : Forzados
Language                    : Spanish
Default                     : Yes
Forced                      : Yes


Text [Tienes que estar registrado y conectado para ver este vínculo]
ID                          : 6
Format                      : UTF-8
Codec ID                    : S_TEXT/UTF8
Codec ID/Info               : UTF-8 Plain Text
Duration                    : 2 h 4 min
Bit rate                    : 35 b/s
Count of elements           : 1111
Stream size                 : 32.3 KiB (0%)
Language                    : Spanish
Default                     : No
Forced                      : No


Text [Tienes que estar registrado y conectado para ver este vínculo]
ID                          : 7
Format                      : UTF-8
Codec ID                    : S_TEXT/UTF8
Codec ID/Info               : UTF-8 Plain Text
Duration                    : 2 h 12 min
Bit rate                    : 43 b/s
Count of elements           : 1614
Stream size                 : 42.5 KiB (0%)
Language                    : English
Default                     : No
Forced                      : No


Menu
00:00:00.000                : en:Bad News
00:13:43.448                : en:Resilient
00:27:24.226                : en:Moral Compass
00:44:54.150                : en:Civilized
01:01:17.924                : en:Complications
01:10:06.786                : en:Minimum Freedom
01:20:00.129                : en:Questions
01:28:06.823                : en:Cell Block 99
01:58:04.786                : en:Talk to Her
02:04:53.486                : en:Credits


Enlaces Descarga
[Tienes que estar registrado y conectado para ver este vínculo] - [Tienes que estar registrado y conectado para ver este vínculo] - [Tienes que estar registrado y conectado para ver este vínculo] - [Tienes que estar registrado y conectado para ver este vínculo] - [Tienes que estar registrado y conectado para ver este vínculo] - [Tienes que estar registrado y conectado para ver este vínculo] - [Tienes que estar registrado y conectado para ver este vínculo]


Enlaces Online
[Tienes que estar registrado y conectado para ver este vínculo] - [Tienes que estar registrado y conectado para ver este vínculo] - [Tienes que estar registrado y conectado para ver este vínculo] - [Tienes que estar registrado y conectado para ver este vínculo] - [Tienes que estar registrado y conectado para ver este vínculo] - [Tienes que estar registrado y conectado para ver este vínculo] - [Tienes que estar registrado y conectado para ver este vínculo] - [Tienes que estar registrado y conectado para ver este vínculo] - [Tienes que estar registrado y conectado para ver este vínculo]
Para ver online en Sendit, Userscloud y Filebebo necesitas estar registrado en su página y usar el navegador [Tienes que estar registrado y conectado para ver este vínculo]


Reproductor



NOTA: Por favor, si los enlaces están caidos avisa en un comentario para poder resubirlos. Gracias

______________________________________________________
Saludos  Smile
Volver arriba
Permisos de este foro:
No puedes responder a temas en este foro.