Comparte
Ir abajo
avatar
Admin
Administrador
Administrador
Sexo : Masculino
Mensajes : 2363
Puntos : 7155
Reputación : 1324
Fecha de inscripción : 02/04/2012
Localización : España

Animación My Little Pony: La Película (2017) [Ver + Descargar] [HD 720p] [Spa-Eng] [Animación]

el Sáb 7 Abr 2018 - 20:13
Reputación del mensaje :100% (1 voto)

Ficha Técnica
SINOPSIS: Cuando una fuerza oscura amenaza a Ponyville y el Mane 6, todos se van en un viaje hasta el final de equestria para salvar a su querida casa, y se encuentran con nuevos amigos y peligrosos desafíos a lo largo del camino.
TÍTULO ORIGINAL: My Little Pony: The Movie
AÑO: [Tienes que estar registrado y conectado para ver este vínculo]
DURACIÓN: 99 min.
PAÍS: Estados Unidos
DIRECTOR: Jayson Thiessen
GÉNERO: [Tienes que estar registrado y conectado para ver este vínculo] [Tienes que estar registrado y conectado para ver este vínculo] # Comedia [Tienes que estar registrado y conectado para ver este vínculo] [Tienes que estar registrado y conectado para ver este vínculo] | [Tienes que estar registrado y conectado para ver este vínculo] [Tienes que estar registrado y conectado para ver este vínculo]

Capturas



Trailer

Info
CALIDAD DE VIDEO: BDRip m720p MPEG4 Video (H264) 1280×536
CALIDAD DE AUDIO 1: Castellano AC3 2.0 448 Kbps
CALIDAD DE AUDIO 2: Inglés AC3 5.1 448 Kbps
SUBTITULOS: Incluye completos en español e inglés y forzados en español.
TAMAÑO: 2.70 GiB
Mediainfo:
Format                      : Matroska
Format version              : Version 4 / Version 2
File size                   : 2.73 GiB
Duration                    : 1 h 39 min
Overall bit rate            : 3 940 kb/s
Movie name                  : My Little Pony_La Película - [Tienes que estar registrado y conectado para ver este vínculo]
Encoded date                : UTC 2018-04-07 10:57:45
Writing application         : mkvmerge v22.0.0 ('At The End Of The World') 64-bit
Writing library             : libebml v1.3.5 + libmatroska v1.4.8


Video
ID                          : 1
Format                      : AVC
Format/Info                 : Advanced Video Codec
Format profile              : High@L4.1
Format settings             : CABAC / 5 Ref Frames
Format settings, CABAC      : Yes
Format settings, RefFrames  : 5 frames
Codec ID                    : V_MPEG4/ISO/AVC
Duration                    : 1 h 39 min
Bit rate                    : 3 042 kb/s
Width                       : 1 280 pixels
Height                      : 536 pixels
Display aspect ratio        : 2.40:1
Frame rate mode             : Constant
Frame rate                  : 23.976 (24000/1001) FPS
Color space                 : YUV
Chroma subsampling          : 4:2:0
Bit depth                   : 8 bits
Scan type                   : Progressive
Bits/(Pixel*Frame)          : 0.185
Stream size                 : 2.11 GiB (77%)
Writing library             : x264 core 152 r2851 ba24899
Encoding settings           : cabac=1 / ref=5 / deblock=1:0:0 / analyse=0x3:0x113 / me=umh / subme=8 / psy=1 / psy_rd=1.00:0.00 / mixed_ref=1 / me_range=16 / chroma_me=1 / trellis=1 / 8x8dct=1 / cqm=0 / deadzone=21,11 / fast_pskip=1 / chroma_qp_offset=-2 / threads=24 / lookahead_threads=4 / sliced_threads=0 / nr=0 / decimate=1 / interlaced=0 / bluray_compat=0 / constrained_intra=0 / bframes=3 / b_pyramid=2 / b_adapt=1 / b_bias=0 / direct=3 / weightb=1 / open_gop=0 / weightp=2 / keyint=240 / keyint_min=24 / scenecut=40 / intra_refresh=0 / rc_lookahead=50 / rc=2pass / mbtree=1 / bitrate=3042 / ratetol=1.0 / qcomp=0.60 / qpmin=0 / qpmax=69 / qpstep=4 / cplxblur=20.0 / qblur=0.5 / ip_ratio=1.40 / aq=1:1.00
Language                    : Spanish
Default                     : Yes
Forced                      : Yes


Audio [Tienes que estar registrado y conectado para ver este vínculo]
ID                          : 2
Format                      : AC-3
Format/Info                 : Audio Coding 3
Format settings, Endianness : Big
Codec ID                    : A_AC3
Duration                    : 1 h 39 min
Bit rate mode               : Constant
Bit rate                    : 448 kb/s
Channel(s)                  : 2 channels
Channel positions           : Front: L R
Sampling rate               : 48.0 kHz
Frame rate                  : 31.250 FPS (1536 SPF)
Bit depth                   : 16 bits
Compression mode            : Lossy
Stream size                 : 318 MiB (11%)
Title                       : AC-3
Language                    : Spanish
Service kind                : Complete Main
Default                     : Yes
Forced                      : Yes


Audio [Tienes que estar registrado y conectado para ver este vínculo]
ID                          : 3
Format                      : AC-3
Format/Info                 : Audio Coding 3
Format settings, Endianness : Big
Codec ID                    : A_AC3
Duration                    : 1 h 39 min
Bit rate mode               : Constant
Bit rate                    : 448 kb/s
Channel(s)                  : 6 channels
Channel positions           : Front: L C R, Side: L R, LFE
Sampling rate               : 48.0 kHz
Frame rate                  : 31.250 FPS (1536 SPF)
Bit depth                   : 16 bits
Compression mode            : Lossy
Stream size                 : 318 MiB (11%)
Title                       : AC-3
Language                    : English
Service kind                : Complete Main
Default                     : No
Forced                      : No


Text [Tienes que estar registrado y conectado para ver este vínculo]
ID                          : 4
Format                      : UTF-8
Codec ID                    : S_TEXT/UTF8
Codec ID/Info               : UTF-8 Plain Text
Duration                    : 1 h 29 min
Bit rate                    : 2 b/s
Count of elements           : 35
Stream size                 : 1.38 KiB (0%)
Title                       : Forzados
Language                    : Spanish
Default                     : Yes
Forced                      : Yes


Text [Tienes que estar registrado y conectado para ver este vínculo]
ID                          : 5
Format                      : UTF-8
Codec ID                    : S_TEXT/UTF8
Codec ID/Info               : UTF-8 Plain Text
Duration                    : 1 h 29 min
Bit rate                    : 57 b/s
Count of elements           : 1155
Stream size                 : 37.5 KiB (0%)
Title                       : Completos
Language                    : Spanish
Default                     : No
Forced                      : No


Text [Tienes que estar registrado y conectado para ver este vínculo]
ID                          : 6
Format                      : UTF-8
Codec ID                    : S_TEXT/UTF8
Codec ID/Info               : UTF-8 Plain Text
Duration                    : 1 h 28 min
Bit rate                    : 44 b/s
Count of elements           : 1030
Stream size                 : 28.8 KiB (0%)
Language                    : English
Default                     : No
Forced                      : No


Menu
00:00:00.000                : en:00:00:00.000
00:05:23.073                : en:00:05:23.073
00:12:03.139                : en:00:12:03.139
00:17:55.533                : en:00:17:55.533
00:22:59.044                : en:00:22:59.044
00:30:24.865                : en:00:30:24.865
00:35:30.336                : en:00:35:30.336
00:41:33.866                : en:00:41:33.866
00:46:23.823                : en:00:46:23.823
00:50:10.841                : en:00:50:10.841
01:01:11.543                : en:01:01:11.543
01:04:23.276                : en:01:04:23.276
01:09:01.137                : en:01:09:01.137
01:15:48.210                : en:01:15:48.210
01:20:24.486                : en:01:20:24.486
01:27:24.072                : en:01:27:24.072


Enlaces Descarga
Tusfiles - Uptobox - 1fichier - Depositfiles - Filebebo - Hitfile - Sendit - Turbobit - Userscloud - Wayupload
En algunos servidores (Tusfiles, Filebebo, Sendit, Userscloud...) es necesario estar registrado para descargar archivos grandes y a mayor velocidad.


Enlaces Online
Rapidvideo - Openload - Vidoza - Streamango - Vidlox - Userscloud - Filebebo - Downace
Para ver online en Sendit, Userscloud y Filebebo necesitas estar registrado en su página y usar el navegador Google Chrome


NOTA: Por favor, si los enlaces están caidos avisa en un comentario para poder resubirlos. Gracias

______________________________________________________
[Tienes que estar registrado y conectado para ver este vínculo]
Saludos  Smile
Volver arriba
Permisos de este foro:
No puedes responder a temas en este foro.