Comparte
Ir abajo
avatar
Admin
Administrador
Administrador
Sexo : Masculino
Mensajes : 1056
Puntos : 3648
Reputación : 895
Fecha de inscripción : 02/04/2012
Localización : España

Comedia Vida de perro (A Dog's Life) 1918 (Charles Chaplin) [Ver + Descargar] [480p] [Comedia]

el Dom 8 Abr 2018 - 2:45
Reputación del mensaje :100% (1 voto)

Ficha Técnica
Sinopsis: Charlot se encuentra sin trabajo y sus perspectivas no son nada halagüeñas cuando salva a una perra errante llamada Scraps del ataque de otros perros. Ambos se hacen inseparables y persiguen un mismo objetivo: conseguir comida.
Título original: A Dog's Life
Año: [Tienes que estar registrado y conectado para ver este vínculo]
Duración: 40 min.
País: Estados Unidos
Dirección: Charles Chaplin
Guion: Charles Chaplin
Música: Película muda
Fotografía: R.H. Totheroh (B&W)
Reparto: Charles Chaplin,  Edna Purviance,  Syd Chaplin,  Henry Bergman,  Charles Reisner, Albert Austin,  Tom Wilson
Productora: First National Pictures
Género: [Tienes que estar registrado y conectado para ver este vínculo] | Perros/Lobos. Pobreza. Cine mudo. Mediometraje

Capturas



Trailer

Info
TAMAÑO: 208.06 MB
Mediainfo:
Format                      : Matroska
Format version              : Version 4 / Version 2
File size                   : 207 MiB
Duration                    : 35 min 10 s
Overall bit rate            : 824 kb/s
Movie name                  : Vida de perro 1998 - [Tienes que estar registrado y conectado para ver este vínculo]
Encoded date                : UTC 2018-03-30 17:20:25
Writing application         : mkvmerge v21.0.0 ('Tardigrades Will Inherit The Earth') 64-bit
Writing library             : libebml v1.3.5 + libmatroska v1.4.8


Video
ID                          : 1
Format                      : AVC
Format/Info                 : Advanced Video Codec
Format profile              : Baseline@L3
Format settings             : 1 Ref Frames
Format settings, CABAC      : No
Format settings, RefFrames  : 1 frame
Codec ID                    : V_MPEG4/ISO/AVC
Duration                    : 35 min 10 s
Bit rate                    : 700 kb/s
Width                       : 640 pixels
Height                      : 480 pixels
Display aspect ratio        : 4:3
Frame rate mode             : Constant
Frame rate                  : 23.976 (23976/1000) FPS
Color space                 : YUV
Chroma subsampling          : 4:2:0
Bit depth                   : 8 bits
Scan type                   : Progressive
Bits/(Pixel*Frame)          : 0.095
Stream size                 : 175 MiB (85%)
Writing library             : x264 core 148 r2638 7599210
Encoding settings           : cabac=0 / ref=1 / deblock=1:0:0 / analyse=0x1:0x111 / me=hex / subme=7 / psy=1 / psy_rd=1.00:0.00 / mixed_ref=0 / me_range=16 / chroma_me=1 / trellis=1 / 8x8dct=0 / cqm=0 / deadzone=21,11 / fast_pskip=1 / chroma_qp_offset=-2 / threads=15 / lookahead_threads=2 / sliced_threads=0 / nr=0 / decimate=1 / interlaced=0 / bluray_compat=0 / constrained_intra=0 / bframes=0 / weightp=0 / keyint=250 / keyint_min=23 / scenecut=40 / intra_refresh=0 / rc_lookahead=40 / rc=2pass / mbtree=1 / bitrate=700 / ratetol=1.0 / qcomp=0.60 / qpmin=0 / qpmax=69 / qpstep=4 / cplxblur=20.0 / qblur=0.5 / vbv_maxrate=768 / vbv_bufsize=1400 / nal_hrd=none / filler=0 / ip_ratio=1.40 / aq=1:1.00
Default                     : Yes
Forced                      : No


Audio
ID                          : 2
Format                      : AAC
Format/Info                 : Advanced Audio Codec
Format profile              : LC
Codec ID                    : A_AAC-2
Duration                    : 35 min 10 s
Bit rate                    : 125 kb/s
Channel(s)                  : 2 channels
Channel positions           : Front: L R
Sampling rate               : 44.1 kHz
Frame rate                  : 43.066 FPS (1024 SPF)
Compression mode            : Lossy
Delay relative to video     : -23 ms
Stream size                 : 31.6 MiB (15%)
Default                     : Yes
Forced                      : No


Enlaces
[Tienes que estar registrado y conectado para ver este vínculo] - [Tienes que estar registrado y conectado para ver este vínculo] - [Tienes que estar registrado y conectado para ver este vínculo] - [Tienes que estar registrado y conectado para ver este vínculo] - [Tienes que estar registrado y conectado para ver este vínculo] - [Tienes que estar registrado y conectado para ver este vínculo] - [Tienes que estar registrado y conectado para ver este vínculo] - [Tienes que estar registrado y conectado para ver este vínculo] - [Tienes que estar registrado y conectado para ver este vínculo] - [Tienes que estar registrado y conectado para ver este vínculo] - [Tienes que estar registrado y conectado para ver este vínculo] - [Tienes que estar registrado y conectado para ver este vínculo] - [Tienes que estar registrado y conectado para ver este vínculo] - [Tienes que estar registrado y conectado para ver este vínculo] - [Tienes que estar registrado y conectado para ver este vínculo] - [Tienes que estar registrado y conectado para ver este vínculo]
Para ver online en Sendit, Userscloud y Filebebo necesitas estar registrado en su página y usar el navegador [Tienes que estar registrado y conectado para ver este vínculo]


Reproductor



NOTA: Por favor, si los enlaces están caidos avisa en un comentario para poder resubirlos. Gracias

______________________________________________________
Saludos  Smile
Volver arriba
Permisos de este foro:
No puedes responder a temas en este foro.