Comparte
Ir abajo
avatar
Admin
Administrador
Administrador
Sexo : Masculino
Mensajes : 1330
Puntos : 4344
Reputación : 1050
Fecha de inscripción : 02/04/2012
Localización : España

Thriller En realidad, nunca estuviste aquí (2017) [Ver + Descargar] [HD 1080p] [Spa-Eng] [Thriller]

el Dom 8 Abr 2018 - 5:19
Reputación del mensaje :100% (1 voto)

Ficha Técnica
SINOPSIS: Joe (Joaquin Phoenix), ex marine y antiguo veterano de guerra, es un tipo solitario que dedica su tiempo a intentar salvar a mujeres que son explotadas sexualmente. No se permite ni amigos ni amantes y se gana la vida rescatando jóvenes de las garras de los tratantes de blancas. Un día recibe la llamada de un político porque su hija ha sido secuestrada.
TÍTULO ORIGINAL: You Were Never Really Here
AÑO: [Tienes que estar registrado y conectado para ver este vínculo]
DURACIÓN: 95 min.
PAÍS: Reino Unido
DIRECTOR: Lynne Ramsay
REPARTO: Joaquin Phoenix, Alessandro Nivola, John Doman, Judith Anna Roberts, Alex Manette, Ekaterina Samsonov, Kate Easton, Jason Babinsky, Frank Pando, Ryan Martin Brown, Scott Price, Dante Pereira-Olson, Jonathan Wilde, Leigh Dunham, Vinicius Damasceno
GÉNERO: [Tienes que estar registrado y conectado para ver este vínculo] [Tienes que estar registrado y conectado para ver este vínculo] | [Tienes que estar registrado y conectado para ver este vínculo] / [Tienes que estar registrado y conectado para ver este vínculo]

Capturas



Trailer

Info
CALIDAD DE VIDEO: WEB-DL m1080p MPEG4 Video (H264) 1920×800
CALIDAD DE AUDIO 1: Castellano AC3 5.1 448 Kbps
CALIDAD DE AUDIO 2: Inglés AC3 5.1 448 Kbps
SUBTITULOS: Incluye forzados en español y completos en español e inglés.
TAMAÑO: 4.00 GiB
Mediainfo:
Format                      : Matroska
Format version              : Version 4 / Version 2
File size                   : 4.00 GiB
Duration                    : 1 h 29 min
Overall bit rate            : 6 395 kb/s
Movie name                  : En realidad nunca estuviste aquí - [Tienes que estar registrado y conectado para ver este vínculo]
Encoded date                : UTC 2018-04-07 22:20:35
Writing application         : mkvmerge v22.0.0 ('At The End Of The World') 64-bit
Writing library             : libebml v1.3.5 + libmatroska v1.4.8


Video
ID                          : 1
Format                      : AVC
Format/Info                 : Advanced Video Codec
Format profile              : High@L4.1
Format settings             : CABAC / 5 Ref Frames
Format settings, CABAC      : Yes
Format settings, RefFrames  : 5 frames
Codec ID                    : V_MPEG4/ISO/AVC
Duration                    : 1 h 29 min
Bit rate                    : 5 500 kb/s
Width                       : 1 920 pixels
Height                      : 804 pixels
Display aspect ratio        : 2.40:1
Frame rate mode             : Constant
Frame rate                  : 24.000 FPS
Color space                 : YUV
Chroma subsampling          : 4:2:0
Bit depth                   : 8 bits
Scan type                   : Progressive
Bits/(Pixel*Frame)          : 0.148
Stream size                 : 3.44 GiB (86%)
Writing library             : x264 core 148 r2708 86b7198
Encoding settings           : cabac=1 / ref=5 / deblock=1:-3:-3 / analyse=0x3:0x113 / me=umh / subme=10 / psy=1 / psy_rd=1.10:0.05 / mixed_ref=0 / me_range=24 / chroma_me=1 / trellis=2 / 8x8dct=1 / cqm=0 / deadzone=21,11 / fast_pskip=1 / chroma_qp_offset=-3 / threads=12 / lookahead_threads=1 / sliced_threads=0 / nr=0 / decimate=1 / interlaced=0 / bluray_compat=0 / constrained_intra=0 / bframes=5 / b_pyramid=2 / b_adapt=2 / b_bias=0 / direct=1 / weightb=1 / open_gop=0 / weightp=2 / keyint=240 / keyint_min=24 / scenecut=40 / intra_refresh=0 / rc_lookahead=45 / rc=2pass / mbtree=1 / bitrate=5500 / ratetol=1.0 / qcomp=0.70 / qpmin=0 / qpmax=69 / qpstep=4 / cplxblur=20.0 / qblur=0.5 / vbv_maxrate=62500 / vbv_bufsize=78125 / nal_hrd=none / filler=0 / ip_ratio=1.40 / aq=1:1.10
Language                    : Spanish
Default                     : Yes
Forced                      : Yes
Color range                 : Limited
Color primaries             : BT.709
Transfer characteristics    : BT.709
Matrix coefficients         : BT.709


Audio [Tienes que estar registrado y conectado para ver este vínculo]
ID                          : 2
Format                      : AC-3
Format/Info                 : Audio Coding 3
Format settings, Endianness : Big
Codec ID                    : A_AC3
Duration                    : 1 h 29 min
Bit rate mode               : Constant
Bit rate                    : 448 kb/s
Channel(s)                  : 6 channels
Channel positions           : Front: L C R, Side: L R, LFE
Sampling rate               : 48.0 kHz
Frame rate                  : 31.250 FPS (1536 SPF)
Bit depth                   : 16 bits
Compression mode            : Lossy
Stream size                 : 286 MiB (7%)
Title                       : AC-3
Language                    : Spanish
Service kind                : Complete Main
Default                     : Yes
Forced                      : Yes


Audio [Tienes que estar registrado y conectado para ver este vínculo]
ID                          : 3
Format                      : AC-3
Format/Info                 : Audio Coding 3
Format settings, Endianness : Big
Codec ID                    : A_AC3
Duration                    : 1 h 29 min
Bit rate mode               : Constant
Bit rate                    : 448 kb/s
Channel(s)                  : 6 channels
Channel positions           : Front: L C R, Side: L R, LFE
Sampling rate               : 48.0 kHz
Frame rate                  : 31.250 FPS (1536 SPF)
Bit depth                   : 16 bits
Compression mode            : Lossy
Stream size                 : 286 MiB (7%)
Title                       : AC-3
Language                    : English
Service kind                : Complete Main
Default                     : No
Forced                      : No


Text [Tienes que estar registrado y conectado para ver este vínculo]
ID                          : 4
Format                      : UTF-8
Codec ID                    : S_TEXT/UTF8
Codec ID/Info               : UTF-8 Plain Text
Duration                    : 1 h 4 min
Bit rate                    : 0 b/s
Count of elements           : 3
Stream size                 : 78.0 Bytes (0%)
Title                       : Forzados
Language                    : Spanish
Default                     : Yes
Forced                      : Yes


Text [Tienes que estar registrado y conectado para ver este vínculo]
ID                          : 5
Format                      : UTF-8
Codec ID                    : S_TEXT/UTF8
Codec ID/Info               : UTF-8 Plain Text
Duration                    : 1 h 20 min
Bit rate                    : 15 b/s
Count of elements           : 432
Stream size                 : 9.17 KiB (0%)
Language                    : Spanish
Default                     : No
Forced                      : No


Text [Tienes que estar registrado y conectado para ver este vínculo]
ID                          : 6
Format                      : UTF-8
Codec ID                    : S_TEXT/UTF8
Codec ID/Info               : UTF-8 Plain Text
Duration                    : 1 h 20 min
Bit rate                    : 15 b/s
Count of elements           : 434
Stream size                 : 8.95 KiB (0%)
Language                    : English
Default                     : No
Forced                      : No


Enlaces Descarga
Tusfiles - Uptobox - 1fichier - Depositfiles - Filebebo - Hitfile - Sendit - Turbobit - Userscloud - Wayupload
En algunos servidores (Tusfiles, Filebebo, Sendit, Userscloud...) es necesario estar registrado para descargar archivos grandes y a mayor velocidad.


Enlaces Online
Rapidvideo - Openload - Vidoza - Streamango - Vidlox - Sendit - Userscloud - Filebebo - Downace
Para ver online en Sendit, Userscloud y Filebebo necesitas estar registrado en su página y usar el navegador Google Chrome


Reproductor



NOTA: Por favor, si los enlaces están caidos avisa en un comentario para poder resubirlos. Gracias

______________________________________________________
Saludos  Smile
Volver arriba
Permisos de este foro:
No puedes responder a temas en este foro.