Comparte
Ir abajo
avatar
Admin
Administrador
Administrador
Sexo : Masculino
Mensajes : 1056
Puntos : 3648
Reputación : 895
Fecha de inscripción : 02/04/2012
Localización : España

Animación Condorito: La película (2017) [Ver Online] [Descargar] [HD 1080p] [Spa-Eng] [Animación]

el Mar 10 Abr 2018 - 17:44
Reputación del mensaje :100% (1 voto)

Ficha Técnica
SINOPSIS: El pajarraco más querido de Pelotillehue emprenderá, junto a su tenaz sobrino Coné, una peligrosa aventura para rescatar a su desaparecida suegra Doña Tremebunda, abducida misteriosamente por una banda alienígena. Lo que no ha tomado en cuenta es que, mientras intenta reparar el error con la madre de Yayita, ésta será tentada románticamente por el insistente Pepe Cortisona. Adaptación cinematográfica del famoso cómic chileno de Pepo.
TÍTULO ORIGINAL: Condorito: La película
AÑO: [Tienes que estar registrado y conectado para ver este vínculo]
DURACIÓN: 83 min.
PAÍS: Perú
DIRECTOR: Alex Orrelle, Eduardo Schuldt
GÉNERO: [Tienes que estar registrado y conectado para ver este vínculo] [Tienes que estar registrado y conectado para ver este vínculo] [Tienes que estar registrado y conectado para ver este vínculo] | 3-D. [Tienes que estar registrado y conectado para ver este vínculo] [Tienes que estar registrado y conectado para ver este vínculo]

Capturas



Trailer

Info
CALIDAD DE VIDEO: WEB-DL m1080p MPEG4 Video (H264) 1908×1068
CALIDAD DE AUDIO 1: Español latino AC3 5.1 448 Kbps
CALIDAD DE AUDIO 2: Inglés AC3 5.1 448 Kbps
TAMAÑO: 3.69 GiB
Mediainfo:
Format                      : Matroska
Format version              : Version 4 / Version 2
File size                   : 3.69 GiB
Duration                    : 1 h 28 min
Overall bit rate            : 5 956 kb/s
Movie name                  : Condorito_La Película - [Tienes que estar registrado y conectado para ver este vínculo]
Encoded date                : UTC 2018-04-09 18:33:52
Writing application         : mkvmerge v22.0.0 ('At The End Of The World') 64-bit
Writing library             : libebml v1.3.5 + libmatroska v1.4.8


Video
ID                          : 1
Format                      : AVC
Format/Info                 : Advanced Video Codec
Format profile              : High@L4
Format settings             : CABAC / 4 Ref Frames
Format settings, CABAC      : Yes
Format settings, RefFrames  : 4 frames
Codec ID                    : V_MPEG4/ISO/AVC
Duration                    : 1 h 28 min
Bit rate                    : 5 124 kb/s
Width                       : 1 908 pixels
Height                      : 1 068 pixels
Display aspect ratio        : 16:9
Frame rate mode             : Constant
Frame rate                  : 23.976 FPS
Color space                 : YUV
Chroma subsampling          : 4:2:0
Bit depth                   : 8 bits
Scan type                   : Progressive
Bits/(Pixel*Frame)          : 0.105
Stream size                 : 3.17 GiB (86%)
Language                    : Spanish
Default                     : Yes
Forced                      : Yes
Color range                 : Limited
Color primaries             : BT.709
Transfer characteristics    : BT.709
Matrix coefficients         : BT.709


Audio [Tienes que estar registrado y conectado para ver este vínculo]
ID                          : 2
Format                      : AC-3
Format/Info                 : Audio Coding 3
Format settings, Endianness : Big
Codec ID                    : A_AC3
Duration                    : 1 h 28 min
Bit rate mode               : Constant
Bit rate                    : 448 kb/s
Channel(s)                  : 6 channels
Channel positions           : Front: L C R, Side: L R, LFE
Sampling rate               : 48.0 kHz
Frame rate                  : 31.250 FPS (1536 SPF)
Bit depth                   : 16 bits
Compression mode            : Lossy
Stream size                 : 284 MiB (8%)
Title                       : AC-3
Language                    : Spanish
Service kind                : Complete Main
Default                     : Yes
Forced                      : Yes


Audio [Tienes que estar registrado y conectado para ver este vínculo]
ID                          : 3
Format                      : AC-3
Format/Info                 : Audio Coding 3
Format settings, Endianness : Big
Codec ID                    : A_AC3
Duration                    : 1 h 28 min
Bit rate mode               : Constant
Bit rate                    : 384 kb/s
Channel(s)                  : 6 channels
Channel positions           : Front: L C R, Side: L R, LFE
Sampling rate               : 48.0 kHz
Frame rate                  : 31.250 FPS (1536 SPF)
Bit depth                   : 16 bits
Compression mode            : Lossy
Stream size                 : 243 MiB (6%)
Title                       : AC-3
Language                    : English
Service kind                : Complete Main
Default                     : No
Forced                      : No


Menu
00:00:00.000                : :Chapter 01
00:05:00.000                : :Chapter 02
00:10:00.000                : :Chapter 03
00:15:00.000                : :Chapter 04
00:20:00.000                : :Chapter 05
00:25:00.000                : :Chapter 06
00:30:00.000                : :Chapter 07
00:35:00.000                : :Chapter 08
00:40:00.000                : :Chapter 09
00:45:00.000                : :Chapter 10
00:50:00.000                : :Chapter 11
00:55:00.000                : :Chapter 12
01:00:00.000                : :Chapter 13
01:05:00.000                : :Chapter 14
01:10:00.000                : :Chapter 15
01:15:00.000                : :Chapter 16
01:20:00.000                : :Chapter 17
01:25:00.000                : :Chapter 18


Enlaces Descarga
[Tienes que estar registrado y conectado para ver este vínculo] - [Tienes que estar registrado y conectado para ver este vínculo] - [Tienes que estar registrado y conectado para ver este vínculo] - [Tienes que estar registrado y conectado para ver este vínculo] - [Tienes que estar registrado y conectado para ver este vínculo] - [Tienes que estar registrado y conectado para ver este vínculo] - [Tienes que estar registrado y conectado para ver este vínculo] - [Tienes que estar registrado y conectado para ver este vínculo] - [Tienes que estar registrado y conectado para ver este vínculo] - [Tienes que estar registrado y conectado para ver este vínculo]
En algunos servidores (Tusfiles, Filebebo, Sendit, Userscloud...) es necesario estar registrado para descargar archivos grandes y a mayor velocidad.


Enlaces Online
[Tienes que estar registrado y conectado para ver este vínculo] - [Tienes que estar registrado y conectado para ver este vínculo] - [Tienes que estar registrado y conectado para ver este vínculo] - [Tienes que estar registrado y conectado para ver este vínculo] - [Tienes que estar registrado y conectado para ver este vínculo] - [Tienes que estar registrado y conectado para ver este vínculo] - [Tienes que estar registrado y conectado para ver este vínculo]
Para ver online en Sendit, Userscloud y Filebebo necesitas estar registrado en su página y usar el navegador [Tienes que estar registrado y conectado para ver este vínculo]


Reproductor



NOTA: Por favor, si los enlaces están caidos avisa en un comentario para poder resubirlos. Gracias

______________________________________________________
Saludos  Smile
Volver arriba
Permisos de este foro:
No puedes responder a temas en este foro.