Comparte
Ir abajo
avatar
Admin
Administrador
Administrador
Sexo : Masculino
Mensajes : 1344
Puntos : 4374
Reputación : 1056
Fecha de inscripción : 02/04/2012
Localización : España

Drama La historia del amor (2016) [Ver + Descargar] [HD 1080p] [Spa-Eng] [Drama Romántico]

el Mar 10 Abr 2018 - 23:48
Reputación del mensaje :100% (1 voto)

Ficha Técnica
SINOPSIS: Nueva York, en la actualidad. Leo, un viejo inmigrante judío polaco, lúdico y divertido, vive recordando a “la mujer más amada en el mundo”, el gran amor de su vida. En el otro extremo de la ciudad, Alma, con el espíritu de una adolescente llena de pasión, descubre el amor por primera vez. Nada parece unir a Leo y Alma. Y sin embargo… desde la Polonia de los años 30 al Central Park de hoy en día, el manuscrito de un libro, “La historia del amor”, viajará a través del tiempo y de los continentes para unir sus destinos.
TÍTULO ORIGINAL: The History of Love
AÑO: [Tienes que estar registrado y conectado para ver este vínculo]
DURACIÓN: 134 min.
PAÍS: Francia
DIRECTOR: Radu Mihaileanu
REPARTO: Derek Jacobi, Sophie Nélisse, Gemma Arterton, Elliott Gould, Torri Higginson, Marko Caka, Alex Ozerov, Lynn Marocola, Mark Rendall, Jamie Bloch, Nancy Cejari, Masa Lizdek, Russell Yuen, Julian Bailey, William Ainscough
GÉNERO: [Tienes que estar registrado y conectado para ver este vínculo] [Tienes que estar registrado y conectado para ver este vínculo] [Tienes que estar registrado y conectado para ver este vínculo] | [Tienes que estar registrado y conectado para ver este vínculo]

Capturas



Trailer

Info
CALIDAD DE VIDEO: BDRip m1080p MPEG4 Video (H264) 1920×800
CALIDAD DE AUDIO 1: Castellano AC3 5.1 448 Kbps
CALIDAD DE AUDIO 2: Inglés AC3 5.1 448 Kbps
SUBTITULOS: Incluye completos en español y francés.
TAMAÑO: 5.03 GiB
Mediainfo:
Format                      : Matroska
Format version              : Version 4 / Version 2
File size                   : 5.03 GiB
Duration                    : 2 h 15 min
Overall bit rate            : 5 320 kb/s
Movie name                  : La historia del amor - [Tienes que estar registrado y conectado para ver este vínculo]
Encoded date                : UTC 2018-04-10 14:57:59
Writing application         : mkvmerge v22.0.0 ('At The End Of The World') 64-bit
Writing library             : libebml v1.3.5 + libmatroska v1.4.8


Video
ID                          : 1
Format                      : AVC
Format/Info                 : Advanced Video Codec
Format profile              : High@L4.1
Format settings             : CABAC / 5 Ref Frames
Format settings, CABAC      : Yes
Format settings, RefFrames  : 5 frames
Codec ID                    : V_MPEG4/ISO/AVC
Duration                    : 2 h 15 min
Bit rate                    : 4 413 kb/s
Width                       : 1 920 pixels
Height                      : 800 pixels
Display aspect ratio        : 2.40:1
Frame rate mode             : Constant
Frame rate                  : 23.976 (24000/1001) FPS
Color space                 : YUV
Chroma subsampling          : 4:2:0
Bit depth                   : 8 bits
Scan type                   : Progressive
Bits/(Pixel*Frame)          : 0.120
Stream size                 : 4.17 GiB (83%)
Writing library             : x264 core 148 r2708 86b7198
Encoding settings           : cabac=1 / ref=5 / deblock=1:-3:-3 / analyse=0x3:0x113 / me=umh / subme=10 / psy=1 / psy_rd=1.10:0.05 / mixed_ref=0 / me_range=24 / chroma_me=1 / trellis=2 / 8x8dct=1 / cqm=0 / deadzone=21,11 / fast_pskip=1 / chroma_qp_offset=-3 / threads=12 / lookahead_threads=1 / sliced_threads=0 / nr=0 / decimate=1 / interlaced=0 / bluray_compat=0 / constrained_intra=0 / bframes=5 / b_pyramid=2 / b_adapt=2 / b_bias=0 / direct=1 / weightb=1 / open_gop=0 / weightp=2 / keyint=240 / keyint_min=24 / scenecut=40 / intra_refresh=0 / rc_lookahead=45 / rc=crf / mbtree=1 / crf=21.0 / qcomp=0.70 / qpmin=0 / qpmax=69 / qpstep=4 / vbv_maxrate=62500 / vbv_bufsize=78125 / crf_max=0.0 / nal_hrd=none / filler=0 / ip_ratio=1.40 / aq=1:1.10
Language                    : Spanish
Default                     : Yes
Forced                      : Yes
Color range                 : Limited
Color primaries             : BT.709
Transfer characteristics    : BT.709
Matrix coefficients         : BT.709


Audio [Tienes que estar registrado y conectado para ver este vínculo]
ID                          : 2
Format                      : AC-3
Format/Info                 : Audio Coding 3
Format settings, Endianness : Big
Codec ID                    : A_AC3
Duration                    : 2 h 15 min
Bit rate mode               : Constant
Bit rate                    : 448 kb/s
Channel(s)                  : 6 channels
Channel positions           : Front: L C R, Side: L R, LFE
Sampling rate               : 48.0 kHz
Frame rate                  : 31.250 FPS (1536 SPF)
Bit depth                   : 16 bits
Compression mode            : Lossy
Stream size                 : 433 MiB (8%)
Title                       : AC-3
Language                    : Spanish
Service kind                : Complete Main
Default                     : Yes
Forced                      : Yes


Audio [Tienes que estar registrado y conectado para ver este vínculo]
ID                          : 3
Format                      : AC-3
Format/Info                 : Audio Coding 3
Format settings, Endianness : Big
Codec ID                    : A_AC3
Duration                    : 2 h 15 min
Bit rate mode               : Constant
Bit rate                    : 448 kb/s
Channel(s)                  : 6 channels
Channel positions           : Front: L C R, Side: L R, LFE
Sampling rate               : 48.0 kHz
Frame rate                  : 31.250 FPS (1536 SPF)
Bit depth                   : 16 bits
Compression mode            : Lossy
Stream size                 : 433 MiB (8%)
Title                       : AC-3
Language                    : English
Service kind                : Complete Main
Default                     : No
Forced                      : No


Text [Tienes que estar registrado y conectado para ver este vínculo]
ID                          : 4
Format                      : UTF-8
Codec ID                    : S_TEXT/UTF8
Codec ID/Info               : UTF-8 Plain Text
Duration                    : 2 h 5 min
Bit rate                    : 53 b/s
Count of elements           : 1293
Stream size                 : 49.2 KiB (0%)
Title                       : Completos
Language                    : Spanish
Default                     : No
Forced                      : No


Text [Tienes que estar registrado y conectado para ver este vínculo]
ID                          : 5
Format                      : PGS
Muxing mode                 : zlib
Codec ID                    : S_HDMV/PGS
Codec ID/Info               : Picture based subtitle format used on BDs/HD-DVDs
Duration                    : 2 h 11 min
Bit rate                    : 28.7 kb/s
Count of elements           : 3228
Stream size                 : 27.1 MiB (1%)
Title                       : Completos
Language                    : French
Default                     : No
Forced                      : No


Menu
00:00:00.000                : :Chapter 1
00:07:18.063                : :Chapter 2
00:15:06.239                : :Chapter 3
00:23:10.139                : :Chapter 4
00:31:13.497                : :Chapter 5
00:39:21.818                : :Chapter 6
00:46:57.815                : :Chapter 7
00:53:28.122                : :Chapter 8
01:02:02.761                : :Chapter 9
01:12:08.908                : :Chapter 10
01:22:02.042                : :Chapter 11
01:32:58.865                : :Chapter 12
01:43:56.731                : :Chapter 13
01:52:27.950                : :Chapter 14
02:02:56.369                : :Chapter 15
02:09:45.653                : :Chapter 16


Enlaces Descarga
Tusfiles - Uptobox - 1fichier - Depositfiles - Filebebo - Rapidgator - Userscloud - Wayupload
En algunos servidores (Tusfiles, Filebebo, Sendit, Userscloud...) es necesario estar registrado para descargar archivos grandes y a mayor velocidad.


Enlaces Online
Rapidvideo - Openload - Vidoza - Streamango - Vidlox - Sendit - Userscloud - Filebebo - Downace
Para ver online en Sendit, Userscloud y Filebebo necesitas estar registrado en su página y usar el navegador Google Chrome


Reproductor



NOTA: Por favor, si los enlaces están caidos avisa en un comentario para poder resubirlos. Gracias

______________________________________________________
Saludos  Smile
Volver arriba
Permisos de este foro:
No puedes responder a temas en este foro.