Comparte
Ir abajo
avatar
Admin
Administrador
Administrador
Sexo : Masculino
Mensajes : 1344
Puntos : 4374
Reputación : 1056
Fecha de inscripción : 02/04/2012
Localización : España

Comedia Malas madres (2016) [Ver Online] [Descargar] [HD 1080p] [Spa-Eng] [Comedia]

el Vie 13 Abr 2018 - 0:35
Reputación del mensaje :100% (1 voto)

Ficha Técnica
SINOPSIS: Una trabajadora madre lleva una vida en apariencia perfecta, pero en realidad el estrés hace que esté a punto de romperse. Cansada de todo, decide unirse junto a otras dos agobiadas madres para liberarse de las responsabilidades convencionales. Así el grupo se emborracha e inicia una lucha por la libertad, la diversión y la autocomplacencia. Pero accidentalmente su camino se cruza con la líder de la asociación de padres, una devota del ideal de “madre perfecta”.
TÍTULO ORIGINAL: Bad Moms
AÑO: [Tienes que estar registrado y conectado para ver este vínculo]
DURACIÓN: 101 min.
PAÍS: Estados Unidos
DIRECTOR: Jon Lucas, Scott Moore
REPARTO: Mila Kunis, Kristen Bell, Kathryn Hahn, Annie Mumolo, Jada Pinkett Smith, Christina Applegate, Eugenia Kuzmina, Emjay Anthony, Christina DeRosa, Jay Jablonski, Billy Slaughter, Mike R. Moreau, Hawn Tran
GÉNERO: [Tienes que estar registrado y conectado para ver este vínculo]

Capturas



Trailer

Info
CALIDAD DE VIDEO: BDRip m1080p MPEG4 Video (H264) 1920×800
CALIDAD DE AUDIO 1: Castellano AC3 5.1 448 Kbps
CALIDAD DE AUDIO 2: Inglés AC3 5.1 448 Kbps
SUBTITULOS: Incluye completos en español e inglés y forzados en español.
TAMAÑO: 4.16 GiB
Mediainfo:
Format : Matroska
Format version : Version 4 / Version 2
File size : 4.16 GiB
Duration : 1 h 40 min
Overall bit rate : 5 896 kb/s
Movie name : Malas Madres - [Tienes que estar registrado y conectado para ver este vínculo]
Encoded date : UTC 2018-04-10 23:52:51
Writing application : mkvmerge v22.0.0 ('At The End Of The World') 64-bit
Writing library : libebml v1.3.5 + libmatroska v1.4.8


Video
ID : 1
Format : AVC
Format/Info : Advanced Video Codec
Format profile : High@L4.1
Format settings : CABAC / 4 Ref Frames
Format settings, CABAC : Yes
Format settings, RefFrames : 4 frames
Codec ID : V_MPEG4/ISO/AVC
Duration : 1 h 40 min
Bit rate : 5 000 kb/s
Width : 1 920 pixels
Height : 800 pixels
Display aspect ratio : 2.40:1
Frame rate mode : Constant
Frame rate : 23.976 (24000/1001) FPS
Color space : YUV
Chroma subsampling : 4:2:0
Bit depth : 8 bits
Scan type : Progressive
Bits/(Pixel*Frame) : 0.136
Stream size : 3.53 GiB (85%)
Writing library : x264 core 142 r2479 dd79a61
Encoding settings : cabac=1 / ref=1 / deblock=1:-3:-3 / analyse=0x3:0x113 / me=hex / subme=2 / psy=1 / psy_rd=1.00:0.15 / mixed_ref=0 / me_range=16 / chroma_me=1 / trellis=0 / 8x8dct=1 / cqm=0 / deadzone=21,11 / fast_pskip=1 / chroma_qp_offset=0 / threads=12 / lookahead_threads=4 / sliced_threads=0 / nr=0 / decimate=1 / interlaced=0 / bluray_compat=0 / constrained_intra=0 / bframes=3 / b_pyramid=2 / b_adapt=1 / b_bias=0 / direct=1 / weightb=1 / open_gop=0 / weightp=1 / keyint=240 / keyint_min=24 / scenecut=40 / intra_refresh=0 / rc_lookahead=10 / rc=crf / mbtree=1 / crf=20.0 / qcomp=0.60 / qpmin=0 / qpmax=69 / qpstep=4 / vbv_maxrate=62500 / vbv_bufsize=78125 / crf_max=0.0 / nal_hrd=none / filler=0 / ip_ratio=1.40 / aq=1:1.00
Language : Spanish
Default : Yes
Forced : Yes
Color range : Limited
Color primaries : BT.709
Transfer characteristics : BT.709
Matrix coefficients : BT.709


Audio [Tienes que estar registrado y conectado para ver este vínculo]
ID : 2
Format : AC-3
Format/Info : Audio Coding 3
Format settings, Endianness : Big
Codec ID : A_AC3
Duration : 1 h 40 min
Bit rate mode : Constant
Bit rate : 448 kb/s
Channel(s) : 6 channels
Channel positions : Front: L C R, Side: L R, LFE
Sampling rate : 48.0 kHz
Frame rate : 31.250 FPS (1536 SPF)
Bit depth : 16 bits
Compression mode : Lossy
Delay relative to video : 25 s 760 ms
Stream size : 322 MiB (8%)
Title : AC-3
Language : Spanish
Service kind : Complete Main
Default : Yes
Forced : Yes


Audio [Tienes que estar registrado y conectado para ver este vínculo]
ID : 3
Format : AC-3
Format/Info : Audio Coding 3
Format settings, Endianness : Big
Codec ID : A_AC3
Duration : 1 h 40 min
Bit rate mode : Constant
Bit rate : 448 kb/s
Channel(s) : 6 channels
Channel positions : Front: L C R, Side: L R, LFE
Sampling rate : 48.0 kHz
Frame rate : 31.250 FPS (1536 SPF)
Bit depth : 16 bits
Compression mode : Lossy
Delay relative to video : -83 ms
Stream size : 323 MiB (8%)
Title : AC-3
Language : English
Service kind : Complete Main
Default : No
Forced : No


Text [Tienes que estar registrado y conectado para ver este vínculo]
ID : 4
Format : UTF-8
Codec ID : S_TEXT/UTF8
Codec ID/Info : UTF-8 Plain Text
Duration : 1 h 26 min
Bit rate : 0 b/s
Count of elements : 13
Stream size : 384 Bytes (0%)
Title : Forzados
Language : Spanish
Default : Yes
Forced : Yes


Text [Tienes que estar registrado y conectado para ver este vínculo]
ID : 5
Format : UTF-8
Codec ID : S_TEXT/UTF8
Codec ID/Info : UTF-8 Plain Text
Duration : 1 h 35 min
Bit rate : 89 b/s
Count of elements : 1671
Stream size : 62.1 KiB (0%)
Title : Completos
Language : Spanish
Default : No
Forced : No


Text [Tienes que estar registrado y conectado para ver este vínculo]
ID : 6
Format : UTF-8
Codec ID : S_TEXT/UTF8
Codec ID/Info : UTF-8 Plain Text
Duration : 1 h 35 min
Bit rate : 89 b/s
Count of elements : 1946
Stream size : 62.1 KiB (0%)
Language : English
Default : No
Forced : No


Text [Tienes que estar registrado y conectado para ver este vínculo]
ID : 7
Format : UTF-8
Codec ID : S_TEXT/UTF8
Codec ID/Info : UTF-8 Plain Text
Duration : 1 h 35 min
Bit rate : 93 b/s
Count of elements : 2074
Stream size : 65.4 KiB (0%)
Language : English
Default : No
Forced : No


Menu
00:00:00.000 : :Chapter 1
00:04:58.631 : :Chapter 2
00:09:17.140 : :Chapter 3
00:16:04.964 : :Chapter 4
00:21:45.345 : :Chapter 5
00:26:46.354 : :Chapter 6
00:29:36.232 : :Chapter 7
00:35:35.591 : :Chapter 8
00:39:21.108 : :Chapter 9
00:44:41.136 : :Chapter 10
00:48:33.410 : :Chapter 11
00:53:43.261 : :Chapter 12
00:59:08.753 : :Chapter 13
01:04:24.193 : :Chapter 14
01:08:56.132 : :Chapter 15
01:14:03.939 : :Chapter 16
01:18:57.733 : :Chapter 17
01:23:49.065 : :Chapter 18
01:26:58.797 : :Chapter 19
01:32:59.282 : :Chapter 20


Enlaces Descarga
Tusfiles - Uptobox - 1fichier - Depositfiles - Filebebo - Rapidgator - Userscloud - Wayupload
En algunos servidores (Tusfiles, Filebebo, Sendit, Userscloud...) es necesario estar registrado para descargar archivos grandes y a mayor velocidad.


Enlaces Online
Rapidvideo - Vidlox - Userscloud - Filebebo - Downace
Para ver online en Sendit, Userscloud y Filebebo necesitas estar registrado en su página y usar el navegador Google Chrome


Reproductor



NOTA: Por favor, si los enlaces están caidos avisa en un comentario para poder resubirlos. Gracias

______________________________________________________
Saludos  Smile
Volver arriba
Permisos de este foro:
No puedes responder a temas en este foro.