Comparte
Ir abajo
avatar
Admin
Administrador
Administrador
Sexo : Masculino
Mensajes : 664
Puntos : 2359
Reputación : 582
Fecha de inscripción : 02/04/2012
Localización : España

Pirateo Jumanji: Bienvenidos a la jungla (2017) [Ver + Descargar] [HD 1080p] [Spa-Eng] [Aventuras]

el Vie 13 Abr 2018 - 22:50

Ficha Técnica
SINOPSIS: Cuatro adolescentes son absorbidos por un videojuego, en el que se convierten en avatares de personajes arquetípicos. Allí vivirán múltiples aventuras, al tiempo que buscan cómo salir de allí para volver a su mundo.
TÍTULO ORIGINAL: Jumanji: Welcome to the Jungle
AÑO: [Tienes que estar registrado y conectado para ver este vínculo]
DURACIÓN: 119 min.
PAÍS: Estados Unidos
DIRECTOR: Jake Kasdan
REPARTO: Dwayne “The Rock” Johnson, Jack Black, Kevin Hart, Karen Gillan, Alex Wolff, Madison Iseman, Nick Jonas, Rhys Darby, Marc Evan Jackson, Morgan Turner, Ser’Darius William Blain, Bobby Cannavale, Missi Pyle, Maribeth Monroe, Tim Matheson
GÉNERO: [Tienes que estar registrado y conectado para ver este vínculo] # Fantástico [Tienes que estar registrado y conectado para ver este vínculo] | Cine [Tienes que estar registrado y conectado para ver este vínculo] Videojuego

Capturas



Trailer

Info
CALIDAD DE VIDEO: BDRip m1080p MPEG4 Video (H264) 1920×804
CALIDAD DE AUDIO 1: Castellano DTS 5.1 2291 Kbps
CALIDAD DE AUDIO 2: Castellano AC3 5.1 448 Kbps
CALIDAD DE AUDIO 3: Inglés AC3 5.1 384 Kbps
SUBTITULOS: Incluye forzados en español y completos en español e inglés.
TAMAÑO: 6.20 GiB
Mediainfo:
Format                      : Matroska
Format version              : Version 4 / Version 2
File size                   : 6.25 GiB
Duration                    : 1 h 59 min
Overall bit rate            : 7 522 kb/s
Movie name                  : Jumanji: Bienvenidos a la junga - [Tienes que estar registrado y conectado para ver este vínculo]
Encoded date                : UTC 2018-04-13 00:03:44
Writing application         : mkvmerge v22.0.0 ('At The End Of The World') 64-bit
Writing library             : libebml v1.3.5 + libmatroska v1.4.8


Video
ID                          : 1
Format                      : AVC
Format/Info                 : Advanced Video Codec
Format profile              : High@L4.1
Format settings             : CABAC / 5 Ref Frames
Format settings, CABAC      : Yes
Format settings, RefFrames  : 5 frames
Codec ID                    : V_MPEG4/ISO/AVC
Duration                    : 1 h 59 min
Bit rate                    : 5 114 kb/s
Width                       : 1 920 pixels
Height                      : 804 pixels
Display aspect ratio        : 2.40:1
Frame rate mode             : Constant
Frame rate                  : 23.976 (24000/1001) FPS
Color space                 : YUV
Chroma subsampling          : 4:2:0
Bit depth                   : 8 bits
Scan type                   : Progressive
Bits/(Pixel*Frame)          : 0.138
Stream size                 : 4.25 GiB (68%)
Writing library             : x264 core 155 r2901 7d0ff22
Encoding settings           : cabac=1 / ref=5 / deblock=1:-3:-3 / analyse=0x3:0x113 / me=umh / subme=11 / psy=1 / psy_rd=1.10:0.05 / mixed_ref=1 / me_range=48 / chroma_me=1 / trellis=2 / 8x8dct=1 / cqm=0 / deadzone=21,11 / fast_pskip=0 / chroma_qp_offset=-3 / threads=25 / lookahead_threads=6 / sliced_threads=0 / nr=0 / decimate=1 / interlaced=0 / bluray_compat=0 / constrained_intra=0 / bframes=10 / b_pyramid=2 / b_adapt=2 / b_bias=0 / direct=1 / weightb=1 / open_gop=0 / weightp=2 / keyint=240 / keyint_min=23 / scenecut=40 / intra_refresh=0 / rc_lookahead=80 / rc=crf / mbtree=1 / crf=19.9 / qcomp=0.70 / qpmin=0 / qpmax=69 / qpstep=4 / vbv_maxrate=62500 / vbv_bufsize=78125 / crf_max=0.0 / nal_hrd=none / filler=0 / ip_ratio=1.40 / aq=1:1.10
Language                    : Spanish
Default                     : Yes
Forced                      : Yes


Audio [Tienes que estar registrado y conectado para ver este vínculo]
ID                          : 2
Format                      : DTS
Format/Info                 : Digital Theater Systems
Mode                        : 16
Format settings, Endianness : Big
Codec ID                    : A_DTS
Duration                    : 1 h 59 min
Bit rate mode               : Constant
Bit rate                    : 1 509 kb/s
Channel(s)                  : 6 channels
Channel positions           : Front: L C R, Side: L R, LFE
Sampling rate               : 48.0 kHz
Frame rate                  : 93.750 FPS (512 SPF)
Bit depth                   : 16 bits
Compression mode            : Lossy
Stream size                 : 1.25 GiB (20%)
Title                       : DTS
Language                    : Spanish
Default                     : Yes
Forced                      : Yes


Audio [Tienes que estar registrado y conectado para ver este vínculo]
ID                          : 3
Format                      : AC-3
Format/Info                 : Audio Coding 3
Format settings, Endianness : Big
Codec ID                    : A_AC3
Duration                    : 1 h 59 min
Bit rate mode               : Constant
Bit rate                    : 448 kb/s
Channel(s)                  : 6 channels
Channel positions           : Front: L C R, Side: L R, LFE
Sampling rate               : 48.0 kHz
Frame rate                  : 31.250 FPS (1536 SPF)
Bit depth                   : 16 bits
Compression mode            : Lossy
Stream size                 : 381 MiB (6%)
Title                       : AC-3
Language                    : Spanish
Service kind                : Complete Main
Default                     : No
Forced                      : No


Audio [Tienes que estar registrado y conectado para ver este vínculo]
ID                          : 4
Format                      : AC-3
Format/Info                 : Audio Coding 3
Format settings, Endianness : Big
Codec ID                    : A_AC3
Duration                    : 1 h 59 min
Bit rate mode               : Constant
Bit rate                    : 448 kb/s
Channel(s)                  : 6 channels
Channel positions           : Front: L C R, Side: L R, LFE
Sampling rate               : 48.0 kHz
Frame rate                  : 31.250 FPS (1536 SPF)
Bit depth                   : 16 bits
Compression mode            : Lossy
Stream size                 : 381 MiB (6%)
Title                       : AC-3
Language                    : English
Service kind                : Complete Main
Default                     : No
Forced                      : No


Text [Tienes que estar registrado y conectado para ver este vínculo]
ID                          : 5
Format                      : UTF-8
Codec ID                    : S_TEXT/UTF8
Codec ID/Info               : UTF-8 Plain Text
Duration                    : 58 min 21 s
Bit rate                    : 0 b/s
Count of elements           : 11
Stream size                 : 314 Bytes (0%)
Title                       : Forzados
Language                    : Spanish
Default                     : Yes
Forced                      : Yes


Text [Tienes que estar registrado y conectado para ver este vínculo]
ID                          : 6
Format                      : UTF-8
Codec ID                    : S_TEXT/UTF8
Codec ID/Info               : UTF-8 Plain Text
Duration                    : 1 h 57 min
Bit rate                    : 52 b/s
Count of elements           : 1499
Stream size                 : 45.1 KiB (0%)
Title                       : Completos
Language                    : Spanish
Default                     : No
Forced                      : No


Text [Tienes que estar registrado y conectado para ver este vínculo]
ID                          : 7
Format                      : UTF-8
Codec ID                    : S_TEXT/UTF8
Codec ID/Info               : UTF-8 Plain Text
Duration                    : 1 h 49 min
Bit rate                    : 65 b/s
Count of elements           : 1805
Stream size                 : 52.6 KiB (0%)
Title                       : Completos
Language                    : English
Default                     : No
Forced                      : No


Menu
00:00:00.000                : :1 - 0:00:00
00:07:18.104                : :2 - 0:07:18
00:17:15.993                : :3 - 0:17:16
00:23:23.235                : :4 - 0:23:23
00:29:24.971                : :5 - 0:29:25
00:42:28.545                : :6 - 0:42:29
00:47:11.161                : :7 - 0:47:11
00:54:26.721                : :8 - 0:54:27
01:03:20.838                : :9 - 1:03:21
01:10:21.800                : :10 - 1:10:22
01:15:51.672                : :11 - 1:15:52
01:24:10.086                : :12 - 1:24:10
01:28:20.295                : :13 - 1:28:20
01:33:48.414                : :14 - 1:33:48
01:42:22.886                : :15 - 1:42:23
01:48:31.838                : :16 - 1:48:32


Enlaces Descarga
[Tienes que estar registrado y conectado para ver este vínculo] - [Tienes que estar registrado y conectado para ver este vínculo] - [Tienes que estar registrado y conectado para ver este vínculo] - [Tienes que estar registrado y conectado para ver este vínculo] - [Tienes que estar registrado y conectado para ver este vínculo] - [Tienes que estar registrado y conectado para ver este vínculo]
En algunos servidores (Tusfiles, Filebebo, Sendit, Userscloud...) es necesario estar registrado para descargar archivos grandes y a mayor velocidad.


Enlaces Online
[Tienes que estar registrado y conectado para ver este vínculo] - [Tienes que estar registrado y conectado para ver este vínculo] - [Tienes que estar registrado y conectado para ver este vínculo] - [Tienes que estar registrado y conectado para ver este vínculo] - [Tienes que estar registrado y conectado para ver este vínculo] - [Tienes que estar registrado y conectado para ver este vínculo] - [Tienes que estar registrado y conectado para ver este vínculo] - [Tienes que estar registrado y conectado para ver este vínculo]
Para ver online en Sendit, Userscloud y Filebebo necesitas estar registrado en su página y usar el navegador [Tienes que estar registrado y conectado para ver este vínculo]


Reproductor



NOTA: Por favor, si los enlaces están caidos avisa en un comentario para poder resubirlos. Gracias

______________________________________________________
Saludos  Smile
Volver arriba
Permisos de este foro:
No puedes responder a temas en este foro.