Comparte
Ir abajo
avatar
Admin
Administrador
Administrador
Sexo : Masculino
Mensajes : 1159
Puntos : 3959
Reputación : 976
Fecha de inscripción : 02/04/2012
Localización : España

Drama Tierra firme (2017) [Ver Online] [Descargar] [HDRip] [Castellano] [Comedia Dramática]

el Sáb 14 Abr 2018 - 23:46
Reputación del mensaje :100% (1 voto)

Ficha Técnica
SINOPSIS: A sus 38 años, Eva teme que su reloj biológico esté a punto de pararse para siempre, pero su novia Kat no quiere que un recién nacido altere la existencia libre y despreocupada que viven ambas en un barco en los canales de Londres. Cuando Roger llega de visita desde Barcelona, Eva no solo ve en él el mejor amigo de su novia, al mejor aliado emocional imaginable, sino también a un donante potencial. Y para sorpresa de Kat, a Roger le atrae la idea de ser padre, a pesar de ser un hombre cuyas relaciones no suelen durar más de una noche… por lo que a Kat no le queda más remedio que aceptar la puesta en marcha del plan por miedo a perder a Eva.
TÍTULO ORIGINAL: Anchor and Hope
AÑO: [Tienes que estar registrado y conectado para ver este vínculo]
DURACIÓN: 115 min.
PAÍS: España
DIRECTOR: Carlos Marques-Marcet
REPARTO: Oona Chaplin, Natalia Tena, David Verdaguer, Trevor White, Geraldine Chaplin, Lara Rossi, Philip Arditti, Charlotte Atkinson, Meghan Treadway
GÉNERO: [Tienes que estar registrado y conectado para ver este vínculo] | Comedia dramática. Homosexualidad

Capturas



Trailer

Info
CALIDAD DE VIDEO: DVDRip XviD 720×304
CALIDAD DE AUDIO: Castellano AC3 5.1 448 kbps
TAMAÑO: 1.94 GiB
Mediainfo:
Format                      : AVI
Format/Info                 : Audio Video Interleave
File size                   : 1.94 GiB
Duration                    : 1 h 48 min
Overall bit rate            : 2 553 kb/s
Writing application         : VirtualDubMod 1.5.10.2 (build 2540/release)
Writing library             : VirtualDubMod build 2540/release
IsTruncated                 : Yes


Video
ID                          : 0
Format                      : MPEG-4 Visual
Format profile              : Advanced Simple@L5
Format settings             : BVOP2
Format settings, BVOP       : 2
Format settings, QPel       : No
Format settings, GMC        : No warppoints
Format settings, Matrix     : Default (H.263)
Codec ID                    : XVID
Codec ID/Hint               : XviD
Duration                    : 1 h 48 min
Bit rate                    : 2 095 kb/s
Width                       : 720 pixels
Height                      : 304 pixels
Display aspect ratio        : 2.35:1
Frame rate                  : 25.000 FPS
Color space                 : YUV
Chroma subsampling          : 4:2:0
Bit depth                   : 8 bits
Scan type                   : Progressive
Compression mode            : Lossy
Bits/(Pixel*Frame)          : 0.383
Stream size                 : 1.59 GiB (82%)
Writing library             : XviD 67


Audio
ID                          : 1
Format                      : AC-3
Format/Info                 : Audio Coding 3
Format settings, Endianness : Big
Codec ID                    : 2000
Duration                    : 1 h 48 min
Bit rate mode               : Constant
Bit rate                    : 448 kb/s
Channel(s)                  : 6 channels
Channel positions           : Front: L C R, Side: L R, LFE
Sampling rate               : 48.0 kHz
Frame rate                  : 31.250 FPS (1536 SPF)
Bit depth                   : 16 bits
Compression mode            : Lossy
Stream size                 : 349 MiB (18%)
Alignment                   : Split accross interleaves
Interleave, duration        : 40  ms (1.00 video frame)
Interleave, preload duratio : 500  ms
Service kind                : Complete Main


Enlaces Descarga
Tusfiles - Uptobox - 1fichier - Depositfiles - Filebebo - Hitfile - Turbobit - Userscloud - Wayupload
En algunos servidores (Tusfiles, Filebebo, Sendit, Userscloud...) es necesario estar registrado para descargar archivos grandes y a mayor velocidad.


Enlaces Online
Rapidvideo - Openload - Vidoza - Streamango
Para ver online en Sendit, Userscloud y Filebebo necesitas estar registrado en su página y usar el navegador Google Chrome


Reproductor



NOTA: Por favor, si los enlaces están caidos avisa en un comentario para poder resubirlos. Gracias

______________________________________________________
Saludos  Smile
Volver arriba
Permisos de este foro:
No puedes responder a temas en este foro.