Comparte
Ir abajo
avatar
Admin
Administrador
Administrador
Sexo : Masculino
Mensajes : 1520
Puntos : 4791
Reputación : 1103
Fecha de inscripción : 02/04/2012
Localización : España

Drama Carteristas (Pickpockets) 2018 [Ver + Descargar] [HD 1080p] [Español] [Drama]

el Lun 16 Abr 2018 - 19:14
Reputación del mensaje :100% (2 votos)

Ficha Técnica
SINOPSIS: Fresh es un joven ladrón que sueña con convertirse en un carterista para robar sin usar la violencia. Fresh se encuentra con Chucho, un guardia de seguridad dispuesto a enseñarle los trucos que necesita a cambio de dinero. Con sus amigos Juana y Doggy, Fresh se encontrará con la codicia, la adrenalina del dinero fácil y las situaciones peligrosas que los llevarán a reconsiderar sus vidas y los caminos que quieren tomar.
TÍTULO ORIGINAL: Pickpockets
AÑO: [Tienes que estar registrado y conectado para ver este vínculo]
DURACIÓN: 107 min.
PAÍS: Colombia
DIRECTOR: Peter Webber
REPARTO: Marcela Mar, Carlos Bardem, Natalia Reyes, Carlos Humberto Camacho, Dubán Andrés Prado, Emiliana Perina
GÉNERO: [Tienes que estar registrado y conectado para ver este vínculo]

Capturas



Trailer

Info
CALIDAD DE VIDEO: WEB-DL m1080p MPEG4 Video (H264) 1920×800
CALIDAD DE AUDIO: Castellano/Latino AC3 5.1 448 Kbps
TAMAÑO: 3.78 GiB
Mediainfo:
Format : Matroska
Format version : Version 4 / Version 2
File size : 3.78 GiB
Duration : 1 h 48 min
Overall bit rate : 4 996 kb/s
Movie name : Pickpockets (Carteristas) - [Tienes que estar registrado y conectado para ver este vínculo]
Encoded date : UTC 2018-04-15 11:22:24
Writing application : mkvmerge v22.0.0 ('At The End Of The World') 64-bit
Writing library : libebml v1.3.5 + libmatroska v1.4.8


Video
ID : 1
Format : AVC
Format/Info : Advanced Video Codec
Format profile : Baseline@L4.1
Format settings : 1 Ref Frames
Format settings, CABAC : No
Format settings, RefFrames : 1 frame
Codec ID : V_MPEG4/ISO/AVC
Duration : 1 h 48 min
Bit rate : 4 500 kb/s
Width : 1 920 pixels
Height : 800 pixels
Display aspect ratio : 2.40:1
Frame rate mode : Constant
Frame rate : 24.000 FPS
Color space : YUV
Chroma subsampling : 4:2:0
Bit depth : 8 bits
Scan type : Progressive
Bits/(Pixel*Frame) : 0.122
Stream size : 3.44 GiB (91%)
Writing library : x264 core 148 r2708 86b7198
Encoding settings : cabac=0 / ref=1 / deblock=0:0:0 / analyse=0:0 / me=dia / subme=0 / psy=1 / psy_rd=1.00:0.00 / mixed_ref=0 / me_range=16 / chroma_me=1 / trellis=0 / 8x8dct=0 / cqm=0 / deadzone=21,11 / fast_pskip=1 / chroma_qp_offset=0 / threads=12 / lookahead_threads=2 / sliced_threads=0 / nr=0 / decimate=1 / interlaced=0 / bluray_compat=0 / constrained_intra=0 / bframes=0 / weightp=0 / keyint=240 / keyint_min=24 / scenecut=0 / intra_refresh=0 / rc_lookahead=0 / rc=abr / mbtree=0 / bitrate=4500 / ratetol=1.0 / qcomp=0.60 / qpmin=0 / qpmax=69 / qpstep=4 / vbv_maxrate=50000 / vbv_bufsize=62500 / nal_hrd=none / filler=0 / ip_ratio=1.40 / aq=0
Language : Spanish
Default : Yes
Forced : Yes
Color range : Limited
Color primaries : BT.709
Transfer characteristics : BT.709
Matrix coefficients : BT.709


Audio
ID : 2
Format : AC-3
Format/Info : Audio Coding 3
Format settings, Endianness : Big
Codec ID : A_AC3
Duration : 1 h 48 min
Bit rate mode : Constant
Bit rate : 448 kb/s
Channel(s) : 6 channels
Channel positions : Front: L C R, Side: L R, LFE
Sampling rate : 48.0 kHz
Frame rate : 31.250 FPS (1536 SPF)
Bit depth : 16 bits
Compression mode : Lossy
Stream size : 347 MiB (9%)
Title : AC-3
Language : Spanish
Service kind : Complete Main
Default : Yes
Forced : Yes


Enlaces Descarga
Tusfiles - Uptobox - 1fichier - Depositfiles - Filebebo - Hitfile - Rapidgator - Turbobit - Userscloud - Wayupload
En algunos servidores (Tusfiles, Filebebo, Sendit, Userscloud...) es necesario estar registrado para descargar archivos grandes y a mayor velocidad.


Enlaces Online
Rapidvideo - Openload - Vidoza - Streamango - Vidlox - Userscloud - Filebebo - Downace
Para ver online en Sendit, Userscloud y Filebebo necesitas estar registrado en su página y usar el navegador Google Chrome


Reproductor



NOTA: Por favor, si los enlaces están caidos avisa en un comentario para poder resubirlos. Gracias

______________________________________________________
Saludos  Smile
avatar
buker10
Nuevo Flipax
Nuevo Flipax
Sexo : Masculino
Mensajes : 1
Puntos : 2
Reputación : 1
Fecha de inscripción : 27/12/2017
Localización : En el bar

Drama Re: Carteristas (Pickpockets) 2018 [Ver + Descargar] [HD 1080p] [Español] [Drama]

el Mar 1 Mayo 2018 - 13:15
Reputación del mensaje :100% (1 voto)
Me gustó la peli 👍
Volver arriba
Permisos de este foro:
No puedes responder a temas en este foro.