Comparte
Ir abajo
avatar
Admin
Administrador
Administrador
Sexo : Masculino
Mensajes : 1500
Puntos : 4748
Reputación : 1102
Fecha de inscripción : 02/04/2012
Localización : España

Drama El sentido de un final (2017) [Ver + Descargar] [HD 1080p] [Spanish - English] [Drama]

el Lun 16 Abr 2018 - 21:27
Reputación del mensaje :100% (1 voto)

Ficha Técnica
SINOPSIS: Tony Webster (Jim Broadbent), un hombre jubilado y divorciado, mantiene una tranquila y solitaria vida. Un día descubre que la madre de Veronica (Freya Mavor), su novia de la universidad, le dejó en su testamento un diario que guardaba su mejor amigo, quien salió con Verónica después de Tony. Para recuperar el diario, ahora en manos de una Verónica (Charlotte Rampling) anciana y muy misteriosa, Tony estará obligado a bucear en su pasado, recordar los momentos fallidos de sus antiguas amistades y relaciones y recrear sentimientos que creía olvidados.
TÍTULO ORIGINAL: The Sense of an Ending
AÑO: [Tienes que estar registrado y conectado para ver este vínculo]
DURACIÓN: 108 min.
PAÍS: Reino Unido
DIRECTOR: Ritesh Batra
REPARTO: Jim Broadbent, Charlotte Rampling, Harriet Walter, Michelle Dockery, Emily Mortimer, Billy Howle, Joe Alwyn, Freya Mavor, Matthew Goode, Edward Holcroft, James Wilby
GÉNERO: [Tienes que estar registrado y conectado para ver este vínculo].

Capturas



Trailer

Info
CALIDAD DE VIDEO: BDRip m1080p MPEG4 Video (H264) 1920×804
CALIDAD DE AUDIO 1: Castellano DTS 5.1 768 Kbps
CALIDAD DE AUDIO 2: Castellano AC3 5.1 448 Kbps
CALIDAD DE AUDIO 3: Inglés AC3 5.1 448 Kbps
SUBTITULOS: Incluye completos en español e inglés.
TAMAÑO: 4.92 GiB
Mediainfo:
Format                      : Matroska
Format version              : Version 4 / Version 2
File size                   : 4.92 GiB
Duration                    : 1 h 48 min
Overall bit rate            : 6 498 kb/s
Movie name                  : El Sentido de un Final - [Tienes que estar registrado y conectado para ver este vínculo]
Encoded date                : UTC 2018-04-15 15:47:46
Writing application         : mkvmerge v22.0.0 ('At The End Of The World') 64-bit
Writing library             : libebml v1.3.5 + libmatroska v1.4.8


Video
ID                          : 1
Format                      : AVC
Format/Info                 : Advanced Video Codec
Format profile              : High@L4.1
Format settings             : CABAC / 5 Ref Frames
Format settings, CABAC      : Yes
Format settings, RefFrames  : 5 frames
Codec ID                    : V_MPEG4/ISO/AVC
Duration                    : 1 h 48 min
Bit rate                    : 4 833 kb/s
Width                       : 1 920 pixels
Height                      : 804 pixels
Display aspect ratio        : 2.40:1
Frame rate mode             : Constant
Frame rate                  : 24.000 FPS
Color space                 : YUV
Chroma subsampling          : 4:2:0
Bit depth                   : 8 bits
Scan type                   : Progressive
Bits/(Pixel*Frame)          : 0.130
Stream size                 : 3.66 GiB (74%)
Writing library             : x264 core 155 r2901 7d0ff22
Encoding settings           : cabac=1 / ref=5 / deblock=1:-3:-3 / analyse=0x3:0x113 / me=umh / subme=11 / psy=1 / psy_rd=1.10:0.00 / mixed_ref=1 / me_range=32 / chroma_me=1 / trellis=2 / 8x8dct=1 / cqm=0 / deadzone=21,11 / fast_pskip=0 / chroma_qp_offset=-2 / threads=25 / lookahead_threads=6 / sliced_threads=0 / nr=0 / decimate=1 / interlaced=0 / bluray_compat=0 / constrained_intra=0 / bframes=10 / b_pyramid=2 / b_adapt=2 / b_bias=0 / direct=1 / weightb=1 / open_gop=0 / weightp=2 / keyint=240 / keyint_min=23 / scenecut=40 / intra_refresh=0 / rc_lookahead=100 / rc=crf / mbtree=1 / crf=18.8 / qcomp=0.70 / qpmin=0 / qpmax=69 / qpstep=4 / vbv_maxrate=62500 / vbv_bufsize=78125 / crf_max=0.0 / nal_hrd=none / filler=0 / ip_ratio=1.40 / aq=3:1.10
Language                    : Spanish
Default                     : Yes
Forced                      : Yes


Audio [Tienes que estar registrado y conectado para ver este vínculo]
ID                          : 2
Format                      : DTS
Format/Info                 : Digital Theater Systems
Mode                        : 16
Format settings, Endianness : Big
Codec ID                    : A_DTS
Duration                    : 1 h 48 min
Bit rate mode               : Constant
Bit rate                    : 768 kb/s
Channel(s)                  : 6 channels
Channel positions           : Front: L C R, Side: L R, LFE
Sampling rate               : 48.0 kHz
Frame rate                  : 93.750 FPS (512 SPF)
Bit depth                   : 16 bits
Compression mode            : Lossy
Delay relative to video     : 8 s 900 ms
Stream size                 : 595 MiB (12%)
Title                       : DTS
Language                    : Spanish
Default                     : Yes
Forced                      : Yes


Audio [Tienes que estar registrado y conectado para ver este vínculo]
ID                          : 3
Format                      : AC-3
Format/Info                 : Audio Coding 3
Format settings, Endianness : Big
Codec ID                    : A_AC3
Duration                    : 1 h 48 min
Bit rate mode               : Constant
Bit rate                    : 448 kb/s
Channel(s)                  : 6 channels
Channel positions           : Front: L C R, Side: L R, LFE
Sampling rate               : 48.0 kHz
Frame rate                  : 31.250 FPS (1536 SPF)
Bit depth                   : 16 bits
Compression mode            : Lossy
Stream size                 : 348 MiB (7%)
Title                       : AC-3
Language                    : Spanish
Service kind                : Complete Main
Default                     : No
Forced                      : No


Audio [Tienes que estar registrado y conectado para ver este vínculo]
ID                          : 4
Format                      : AC-3
Format/Info                 : Audio Coding 3
Format settings, Endianness : Big
Codec ID                    : A_AC3
Duration                    : 1 h 48 min
Bit rate mode               : Constant
Bit rate                    : 448 kb/s
Channel(s)                  : 6 channels
Channel positions           : Front: L C R, Side: L R, LFE
Sampling rate               : 48.0 kHz
Frame rate                  : 31.250 FPS (1536 SPF)
Bit depth                   : 16 bits
Compression mode            : Lossy
Stream size                 : 348 MiB (7%)
Title                       : AC-3
Language                    : English
Service kind                : Complete Main
Default                     : No
Forced                      : No


Text [Tienes que estar registrado y conectado para ver este vínculo]
ID                          : 5
Format                      : UTF-8
Codec ID                    : S_TEXT/UTF8
Codec ID/Info               : UTF-8 Plain Text
Duration                    : 1 h 44 min
Bit rate                    : 43 b/s
Count of elements           : 1078
Stream size                 : 33.2 KiB (0%)
Title                       : Completos
Language                    : Spanish
Default                     : No
Forced                      : No


Text [Tienes que estar registrado y conectado para ver este vínculo]
ID                          : 6
Format                      : UTF-8
Codec ID                    : S_TEXT/UTF8
Codec ID/Info               : UTF-8 Plain Text
Duration                    : 1 h 44 min
Bit rate                    : 52 b/s
Count of elements           : 1116
Stream size                 : 40.0 KiB (0%)
Title                       : Completos
Language                    : English
Default                     : No
Forced                      : No


Menu
00:00:00.000                : en:00:00:00.000
00:08:06.486                : en:00:08:06.486
00:17:13.032                : en:00:17:13.032
00:29:46.618                : en:00:29:46.618
00:40:14.412                : en:00:40:14.412
00:49:26.380                : en:00:49:26.380
00:56:39.813                : en:00:56:39.813
01:10:28.224                : en:01:10:28.224
01:18:23.699                : en:01:18:23.699
01:27:21.236                : en:01:27:21.236
01:38:59.350                : en:01:38:59.350
01:45:36.330                : en:01:45:36.330


Enlaces Descarga
Tusfiles - Uptobox - 1fichier - Depositfiles - Filebebo - Rapidgator - Userscloud - Wayupload
En algunos servidores (Tusfiles, Filebebo, Sendit, Userscloud...) es necesario estar registrado para descargar archivos grandes y a mayor velocidad.


Enlaces Online
Rapidvideo - Openload - Vidoza - Streamango - Vidlox - Userscloud - Filebebo - Downace
Para ver online en Sendit, Userscloud y Filebebo necesitas estar registrado en su página y usar el navegador Google Chrome


NOTA: Por favor, si los enlaces están caidos avisa en un comentario para poder resubirlos. Gracias

______________________________________________________
Saludos  Smile
Volver arriba
Permisos de este foro:
No puedes responder a temas en este foro.