Comparte
Ir abajo
avatar
Admin
Administrador
Administrador
Sexo : Masculino
Mensajes : 2264
Puntos : 6891
Reputación : 1323
Fecha de inscripción : 02/04/2012
Localización : España

Drama Wonder Wheel (2017) [Ver Online] [Descargar] [HD 1080p] [Spa-Eng] [Drama]

el Vie 20 Abr 2018 - 21:37
Reputación del mensaje :100% (1 voto)

Ficha Técnica
SINOPSIS: En la Coney Island de la década de los 50, el joven Mickey Rubin (Timberlake), un apuesto salvavidas del parque de atracciones que quiere ser escritor, cuenta la historia de Humpty (Jim Belushi), operador del carrusel del parque, y de su esposa Ginny (Winslet), una actriz con un carácter sumamente volátil que trabaja como camarera. Ginny y Humpty pasan por una crisis porque además él tiene un problema con el alcohol, y por si fuera poco la vida de todos se complica cuando aparece Carolina (Juno Temple), la hija de Humpty, que está huyendo de un grupo de mafiosos.
TÍTULO ORIGINAL: Wonder Wheel
AÑO: [Tienes que estar registrado y conectado para ver este vínculo]
DURACIÓN: 101 min.
PAÍS: Estados Unidos
DIRECTOR: Woody Allen
REPARTO: Kate Winslet, Justin Timberlake, Juno Temple, James Belushi, Jack Gore, Max Casella, Michael Zegarski, Tony Sirico, Marko Caka, Dominic Albano, Evin Cross, Debi Mazar, Brittini Schreiber, Geneva Carr, Steve Schirripa, Matthew Maher
GÉNERO: [Tienes que estar registrado y conectado para ver este vínculo] | [Tienes que estar registrado y conectado para ver este vínculo]

Capturas



Trailer

Info
CALIDAD DE VIDEO: BDRip m1080p MPEG4 Video (H264) 1920×960
CALIDAD DE AUDIO 1: Castellano AC3 5.1 448 Kbps
CALIDAD DE AUDIO 2: Inglés AC3 5.1 448 Kbps
SUBTITULOS: Incluye completos en español.
TAMAÑO: 4.06 GiB
Mediainfo:
Format                      : Matroska
Format version              : Version 4 / Version 2
File size                   : 4.06 GiB
Duration                    : 1 h 41 min
Overall bit rate            : 5 753 kb/s
Movie name                  : Wonder Wheel - [Tienes que estar registrado y conectado para ver este vínculo]
Encoded date                : UTC 2018-04-17 15:05:56
Writing application         : mkvmerge v22.0.0 ('At The End Of The World') 64-bit
Writing library             : libebml v1.3.5 + libmatroska v1.4.8


Video
ID                          : 1
Format                      : AVC
Format/Info                 : Advanced Video Codec
Format profile              : High@L4.1
Format settings             : CABAC / 4 Ref Frames
Format settings, CABAC      : Yes
Format settings, RefFrames  : 4 frames
Codec ID                    : V_MPEG4/ISO/AVC
Duration                    : 1 h 41 min
Bit rate                    : 5 000 kb/s
Width                       : 1 920 pixels
Height                      : 960 pixels
Display aspect ratio        : 2.000
Frame rate mode             : Constant
Frame rate                  : 23.976 (24000/1001) FPS
Color space                 : YUV
Chroma subsampling          : 4:2:0
Bit depth                   : 8 bits
Scan type                   : Progressive
Bits/(Pixel*Frame)          : 0.113
Stream size                 : 3.43 GiB (84%)
Writing library             : x264 core 148 r2708 86b7198
Encoding settings           : cabac=1 / ref=2 / deblock=1:0:0 / analyse=0x3:0x113 / me=hex / subme=6 / psy=1 / psy_rd=1.00:0.00 / mixed_ref=1 / me_range=16 / chroma_me=1 / trellis=1 / 8x8dct=1 / cqm=0 / deadzone=21,11 / fast_pskip=1 / chroma_qp_offset=-2 / threads=30 / lookahead_threads=5 / sliced_threads=0 / nr=0 / decimate=1 / interlaced=0 / bluray_compat=0 / constrained_intra=0 / bframes=3 / b_pyramid=2 / b_adapt=1 / b_bias=0 / direct=1 / weightb=1 / open_gop=0 / weightp=1 / keyint=240 / keyint_min=24 / scenecut=40 / intra_refresh=0 / rc_lookahead=30 / rc=abr / mbtree=1 / bitrate=5000 / ratetol=1.0 / qcomp=0.60 / qpmin=0 / qpmax=69 / qpstep=4 / vbv_maxrate=62500 / vbv_bufsize=78125 / nal_hrd=none / filler=0 / ip_ratio=1.40 / aq=1:1.00
Language                    : Spanish
Default                     : Yes
Forced                      : Yes
Color range                 : Limited
Color primaries             : BT.709
Transfer characteristics    : BT.709
Matrix coefficients         : BT.709


Audio [Tienes que estar registrado y conectado para ver este vínculo]
ID                          : 2
Format                      : AC-3
Format/Info                 : Audio Coding 3
Format settings, Endianness : Big
Codec ID                    : A_AC3
Duration                    : 1 h 40 min
Bit rate mode               : Constant
Bit rate                    : 448 kb/s
Channel(s)                  : 6 channels
Channel positions           : Front: L C R, Side: L R, LFE
Sampling rate               : 48.0 kHz
Frame rate                  : 31.250 FPS (1536 SPF)
Bit depth                   : 16 bits
Compression mode            : Lossy
Delay relative to video     : 900 ms
Stream size                 : 324 MiB (8%)
Title                       : AC-3
Language                    : Spanish
Service kind                : Complete Main
Default                     : Yes
Forced                      : Yes


Audio [Tienes que estar registrado y conectado para ver este vínculo]
ID                          : 3
Format                      : AC-3
Format/Info                 : Audio Coding 3
Format settings, Endianness : Big
Codec ID                    : A_AC3
Duration                    : 1 h 40 min
Bit rate mode               : Constant
Bit rate                    : 448 kb/s
Channel(s)                  : 6 channels
Channel positions           : Front: L C R, Side: L R, LFE
Sampling rate               : 48.0 kHz
Frame rate                  : 31.250 FPS (1536 SPF)
Bit depth                   : 16 bits
Compression mode            : Lossy
Delay relative to video     : 900 ms
Stream size                 : 324 MiB (8%)
Title                       : AC-3
Language                    : English
Service kind                : Complete Main
Default                     : No
Forced                      : No


Text
ID                          : 4
Format                      : UTF-8
Codec ID                    : S_TEXT/UTF8
Codec ID/Info               : UTF-8 Plain Text
Duration                    : 1 h 36 min
Bit rate                    : 77 b/s
Count of elements           : 1650
Stream size                 : 54.5 KiB (0%)
Language                    : Spanish
Default                     : No
Forced                      : No


Menu
00:00:00.000                : en:00:00:00.000
00:06:07.450                : en:00:06:07.450
00:12:22.367                : en:00:12:22.367
00:17:53.322                : en:00:17:53.322
00:23:46.425                : en:00:23:46.425
00:30:24.072                : en:00:30:24.072
00:35:28.543                : en:00:35:28.543
00:40:06.904                : en:00:40:06.904
00:46:12.353                : en:00:46:12.353
00:51:53.736                : en:00:51:53.736
00:58:04.898                : en:00:58:04.898
01:01:55.086                : en:01:01:55.086
01:05:18.498                : en:01:05:18.498
01:09:38.466                : en:01:09:38.466
01:12:15.039                : en:01:12:15.039
01:17:58.841                : en:01:17:58.841
01:24:03.747                : en:01:24:03.747
01:28:39.189                : en:01:28:39.189
01:35:05.283                : en:01:35:05.283
01:37:57.288                : en:01:37:57.288


Enlaces Descarga
Tusfiles - Uptobox - Userscloud - 1fichier - Depositfiles - k-bagi - Rapidgator - Wayupload
En algunos servidores (Tusfiles, Filebebo, Sendit, Userscloud...) es necesario estar registrado para descargar archivos grandes y a mayor velocidad.


Enlaces Online
ok.ru - Rapidvideo - Openload - Vidoza - Streamango - Vidlox - Userscloud - Filebebo - Downace
Para ver online en Sendit, Userscloud y Filebebo necesitas estar registrado en su página y usar el navegador Google Chrome


Reproductor
(ok.ru)



NOTA: Por favor, si los enlaces están caidos avisa en un comentario para poder resubirlos. Gracias


Última edición por Admin el Miér 25 Jul 2018 - 16:25, editado 4 veces

______________________________________________________
[Tienes que estar registrado y conectado para ver este vínculo]
Saludos  Smile
hab204
Nuevo Flipax
Nuevo Flipax
Sexo : Femenino
Mensajes : 1
Puntos : 2
Reputación : 1
Fecha de inscripción : 22/07/2018

Drama Re: Wonder Wheel (2017) [Ver Online] [Descargar] [HD 1080p] [Spa-Eng] [Drama]

el Miér 25 Jul 2018 - 1:48
Reputación del mensaje :100% (1 voto)
Los links de descarga están caídos...  Sad ¿Podrías resubirlos? Muchas gracias
avatar
Admin
Administrador
Administrador
Sexo : Masculino
Mensajes : 2264
Puntos : 6891
Reputación : 1323
Fecha de inscripción : 02/04/2012
Localización : España

Drama Re: Wonder Wheel (2017) [Ver Online] [Descargar] [HD 1080p] [Spa-Eng] [Drama]

el Miér 25 Jul 2018 - 9:36
[Tienes que estar registrado y conectado para ver este vínculo] escribió:Los links de descarga están caídos...  Sad  ¿Podrías resubirlos? Muchas gracias

Hola [Tienes que estar registrado y conectado para ver este vínculo]

En breve estarán resubidos. Gracias por avisar 👍

______________________________________________________
[Tienes que estar registrado y conectado para ver este vínculo]
Saludos  Smile
Volver arriba
Permisos de este foro:
No puedes responder a temas en este foro.