Comparte
Ir abajo
avatar
Admin
Administrador
Administrador
Sexo : Masculino
Mensajes : 1159
Puntos : 3959
Reputación : 976
Fecha de inscripción : 02/04/2012
Localización : España

Animación El niño y el mundo (2013) [Ver Online] [Descargar] [HD 1080p] [MultiServer] [Animación]

el Sáb 21 Abr 2018 - 3:09
Reputación del mensaje :100% (2 votos)

Ficha Técnica
SINOPSIS: Un niño que sufre por la falta de un padre deja su aldea y descubre un mundo fantástico, dominado por animales-máquina y seres extraños. Película de animación extraordinaria, con muchas técnicas distintas, que aborda los problemas del mundo moderno a través de los ojos de un niño.
TÍTULO ORIGINAL: O menino e o mundo (The Boy and the World)
AÑO: [Tienes que estar registrado y conectado para ver este vínculo]
DURACIÓN: 80 min.
PAÍS: Brasil
DIRECTOR: Alê Abreu
GÉNERO: [Tienes que estar registrado y conectado para ver este vínculo] [Tienes que estar registrado y conectado para ver este vínculo] [Tienes que estar registrado y conectado para ver este vínculo] [Tienes que estar registrado y conectado para ver este vínculo] [Tienes que estar registrado y conectado para ver este vínculo] | [Tienes que estar registrado y conectado para ver este vínculo] Road Movie [Tienes que estar registrado y conectado para ver este vínculo]

Capturas



Trailer

Info
CALIDAD DE VIDEO: BDRip m1080p MPEG4 Video (H264) 1920x1080
CALIDAD DE AUDIO: AC3 5.1 640 Kbps
TAMAÑO: 3,03GIB
NOTA: La película no tiene diálogos.
Mediainfo:
Format                      : Matroska
Format version              : Version 4 / Version 2
File size                   : 3.03 GiB
Duration                    : 1 h 20 min
Overall bit rate            : 5 413 kb/s
Movie name                  : El niño y el mundo - [Tienes que estar registrado y conectado para ver este vínculo]
Encoded date                : UTC 2018-04-20 00:00:07
Writing application         : mkvmerge v22.0.0 ('At The End Of The World') 64-bit
Writing library             : libebml v1.3.5 + libmatroska v1.4.8


Video
ID                          : 1
Format                      : AVC
Format/Info                 : Advanced Video Codec
Format profile              : High@L4.1
Format settings             : CABAC / 2 Ref Frames
Format settings, CABAC      : Yes
Format settings, RefFrames  : 2 frames
Codec ID                    : V_MPEG4/ISO/AVC
Duration                    : 1 h 20 min
Bit rate                    : 4 773 kb/s
Width                       : 1 920 pixels
Height                      : 1 080 pixels
Display aspect ratio        : 16:9
Frame rate mode             : Constant
Frame rate                  : 23.976 (24000/1001) FPS
Color space                 : YUV
Chroma subsampling          : 4:2:0
Bit depth                   : 8 bits
Scan type                   : Progressive
Bits/(Pixel*Frame)          : 0.096
Stream size                 : 2.67 GiB (88%)
Writing library             : x264 core 142
Encoding settings           : cabac=1 / ref=1 / deblock=1👎-1 / analyse=0x3:0 / me=hex / subme=5 / psy=0 / mixed_ref=0 / me_range=16 / chroma_me=1 / trellis=0 / 8x8dct=1 / cqm=0 / deadzone=21,11 / fast_pskip=1 / chroma_qp_offset=0 / threads=16 / lookahead_threads=4 / sliced_threads=0 / nr=0 / decimate=1 / interlaced=0 / bluray_compat=0 / constrained_intra=0 / bframes=2 / b_pyramid=0 / b_adapt=1 / b_bias=0 / direct=1 / weightb=1 / open_gop=0 / weightp=0 / keyint=24 / keyint_min=13 / scenecut=40 / intra_refresh=0 / rc=2pass / mbtree=0 / bitrate=4773 / ratetol=1.0 / qcomp=0.60 / qpmin=0 / qpmax=69 / qpstep=4 / cplxblur=20.0 / qblur=0.5 / ip_ratio=1.40 / pb_ratio=1.30 / aq=1:1.00
Language                    : Spanish
Default                     : Yes
Forced                      : Yes
Color range                 : Limited
Color primaries             : BT.709
Transfer characteristics    : BT.709
Matrix coefficients         : BT.709


Audio
ID                          : 2
Format                      : AC-3
Format/Info                 : Audio Coding 3
Format settings, Endianness : Big
Codec ID                    : A_AC3
Duration                    : 1 h 20 min
Bit rate mode               : Constant
Bit rate                    : 640 kb/s
Channel(s)                  : 6 channels
Channel positions           : Front: L C R, Side: L R, LFE
Sampling rate               : 48.0 kHz
Frame rate                  : 31.250 FPS (1536 SPF)
Bit depth                   : 16 bits
Compression mode            : Lossy
Stream size                 : 367 MiB (12%)
Title                       : AC-3
Language                    : Spanish
Service kind                : Complete Main
Default                     : Yes
Forced                      : Yes


Menu
00:00:00.000                : en:00:00:00.000
00:02:54.257                : en:00:02:54.257
00:06:39.816                : en:00:06:39.816
00:10:07.440                : en:00:10:07.440
00:13:45.158                : en:00:13:45.158
00:16:57.892                : en:00:16:57.892
00:20:49.457                : en:00:20:49.457
00:24:13.702                : en:00:24:13.702
00:29:50.455                : en:00:29:50.455
00:33:20.081                : en:00:33:20.081
00:37:05.140                : en:00:37:05.140
00:41:37.620                : en:00:41:37.620
00:43:33.236                : en:00:43:33.236
00:48:15.309                : en:00:48:15.309
00:53:03.931                : en:00:53:03.931
00:58:31.758                : en:00:58:31.758
01:03:15.500                : en:01:03:15.500
01:06:24.856                : en:01:06:24.856
01:10:04.200                : en:01:10:04.200
01:13:42.835                : en:01:13:42.835


Enlaces Descarga
Tusfiles - Uptobox - 1fichier - Depositfiles - Hitfile - Turbobit - Userscloud - Wayupload
En algunos servidores (Tusfiles, Filebebo, Sendit, Userscloud...) es necesario estar registrado para descargar archivos grandes y a mayor velocidad.


Enlaces Online
Rapidvideo - Openload - Vidoza - Streamango - Vidlox - Userscloud - Downace
Para ver online en Sendit, Userscloud y Filebebo necesitas estar registrado en su página y usar el navegador Google Chrome


Reproductor



NOTA: Por favor, si los enlaces están caidos avisa en un comentario para poder resubirlos. Gracias

______________________________________________________
Saludos  Smile
Volver arriba
Permisos de este foro:
No puedes responder a temas en este foro.