Comparte
Ir abajo
avatar
Admin
Administrador
Administrador
Sexo : Masculino
Mensajes : 1520
Puntos : 4791
Reputación : 1103
Fecha de inscripción : 02/04/2012
Localización : España

Drama Red de libertad (2017) [Ver Online] [Descargar] [HD 1080p] [Castellano] [Drama]

el Mar 24 Abr 2018 - 0:46
Reputación del mensaje :100% (1 voto)

Ficha Técnica
SINOPSIS: Francia, principio de la II Guerra Mundial. Helena Studler es una religiosa que desde joven se dedica al cuidado de los huérfanos y los abandonados. Pero los tiempos han cambiado, el pueblo vive toda una revuelta, los alemanes han entrado en su ciudad y la realidad a la que ahora se enfrenta supera con creces la dureza a la que está acostumbrada: Helena descubre que cerca de su localidad, los nazis han instalado un campo de concentración. Junto a algunos hombres de la ciudad, varias de sus Hermanas Hijas de la Caridad traman todo un plan para intentar liberar a los cautivos de su trágico final.
TÍTULO ORIGINAL: Red de libertad
AÑO: [Tienes que estar registrado y conectado para ver este vínculo]
DURACIÓN: 120 min.
PAÍS: España
DIRECTOR: Pablo Moreno
REPARTO: Assumpta Serna, Giulia Charm, Luisa Gavasa, Javier Bódalo, Fran Calvo, Ainhoa Aldanondo, Emilio Linder, Antonio Reyes, Marian Arahuetes, Gabriel Latorre, Juan Lombardero, Pablo Viña, Alito Rodgers, Jacobo Muñoz, Juan Alberto López
GÉNERO: [Tienes que estar registrado y conectado para ver este vínculo] | Años 40. II Guerra Mundial. [Tienes que estar registrado y conectado para ver este vínculo] [Tienes que estar registrado y conectado para ver este vínculo]

Capturas



Trailer

Info
CALIDAD DE VIDEO: WEB-DL m1080p MPEG4 Video (H264) 1920x816
CALIDAD DE AUDIO: Castellano AC3 2.0 448 Kbps
SUBTITULOS: Incluye forzados en español.
TAMAÑO: 4.28 GiB
Mediainfo:
Format : Matroska
Format version : Version 4 / Version 2
File size : 4.28 GiB
Duration : 2 h 0 min
Overall bit rate : 5 086 kb/s
Movie name : Red de libertad - [Tienes que estar registrado y conectado para ver este vínculo]
Encoded date : UTC 2018-04-22 22:55:34
Writing application : mkvmerge v22.0.0 ('At The End Of The World') 64-bit
Writing library : libebml v1.3.5 + libmatroska v1.4.8


Video
ID : 1
Format : AVC
Format/Info : Advanced Video Codec
Format profile : High@L4.1
Format settings : CABAC / 2 Ref Frames
Format settings, CABAC : Yes
Format settings, RefFrames : 2 frames
Codec ID : V_MPEG4/ISO/AVC
Duration : 2 h 0 min
Bit rate : 4 637 kb/s
Width : 1 916 pixels
Height : 816 pixels
Display aspect ratio : 2.35:1
Frame rate mode : Constant
Frame rate : 25.000 FPS
Color space : YUV
Chroma subsampling : 4:2:0
Bit depth : 8 bits
Scan type : Progressive
Bits/(Pixel*Frame) : 0.119
Stream size : 3.90 GiB (91%)
Writing library : x264 core 142
Encoding settings : cabac=1 / ref=1 / deblock=1👎-1 / analyse=0x3:0 / me=hex / subme=5 / psy=0 / mixed_ref=0 / me_range=16 / chroma_me=1 / trellis=0 / 8x8dct=1 / cqm=0 / deadzone=21,11 / fast_pskip=0 / chroma_qp_offset=0 / threads=8 / lookahead_threads=2 / sliced_threads=0 / nr=0 / decimate=1 / interlaced=0 / bluray_compat=0 / constrained_intra=0 / bframes=2 / b_pyramid=0 / b_adapt=1 / b_bias=0 / direct=1 / weightb=0 / open_gop=0 / weightp=0 / keyint=24 / keyint_min=13 / scenecut=40 / intra_refresh=0 / rc=crf / mbtree=0 / crf=20.0 / qcomp=0.60 / qpmin=0 / qpmax=69 / qpstep=4 / ip_ratio=1.40 / pb_ratio=1.30 / aq=1:1.00
Language : Spanish
Default : Yes
Forced : Yes
Color range : Limited
Color primaries : BT.709
Transfer characteristics : BT.709
Matrix coefficients : BT.709


Audio
ID : 2
Format : AC-3
Format/Info : Audio Coding 3
Format settings, Endianness : Big
Codec ID : A_AC3
Duration : 2 h 0 min
Bit rate mode : Constant
Bit rate : 448 kb/s
Channel(s) : 2 channels
Channel positions : Front: L R
Sampling rate : 44.1 kHz
Frame rate : 28.711 FPS (1536 SPF)
Bit depth : 16 bits
Compression mode : Lossy
Stream size : 386 MiB (9%)
Title : AC-3
Language : Spanish
Service kind : Complete Main
Default : Yes
Forced : Yes


Enlaces Descarga
Tusfiles - Uptobox - 1fichier - Depositfiles - Rapidgator - Userscloud - Wayupload
En algunos servidores (Tusfiles, Filebebo, Sendit, Userscloud...) es necesario estar registrado para descargar archivos grandes y a mayor velocidad.


Enlaces Online
Rapidvideo - Openload - Vidoza - Streamango - Vidlox - Userscloud - Downace
Para ver online en Sendit, Userscloud y Filebebo necesitas estar registrado en su página y usar el navegador Google Chrome


Reproductor



NOTA: Por favor, si los enlaces están caidos avisa en un comentario para poder resubirlos. Gracias

______________________________________________________
Saludos  Smile
Volver arriba
Permisos de este foro:
No puedes responder a temas en este foro.