Comparte
Ir abajo
avatar
Admin
Administrador
Administrador
Sexo : Masculino
Mensajes : 975
Puntos : 3407
Reputación : 849
Fecha de inscripción : 02/04/2012
Localización : España

C.Ficción El corredor del laberinto: La cura mortal (2018) [Ver + Descargar] [1080p] [Spa-Eng]

el Vie 27 Abr 2018 - 23:56
Reputación del mensaje :100% (2 votos)

Ficha Técnica
SINOPSIS: Thomas no puede confiar en CRUEL. La organización le borró sus recuerdos y lo encerró en el Laberinto. Luego lo dejó al borde de la muerte, en el Desierto. Y lo separaron de los Habitantes, sus únicos amigo. Ahora CRUEL asegura que el tiempo de las mentiras ha terminado. Con toda la información que reunió gracias a las Pruebas, está en condiciones de avanzar en la cura de la Llamarada. Pero Thomas debe pasar por la Prueba Final. ¿Logrará sobrevivir al procedimiento? ¿Será cierto que se terminaron las mentiras? Quizá la verdad sea más terrible aún… una solución letal, sin retorno. ‘La cura mortal‘ se basa en la tercera parte de la saga literaria iniciada con ‘El corredor del laberinto’, de James Dashner.
TÍTULO ORIGINAL: Maze Runner: The Death Cure
AÑO: 2018
DURACIÓN: 142 min.
PAÍS: Estados Unidos
DIRECTOR: Wes Ball
REPARTO: Dylan O’Brien, Ki Hong Lee, Kaya Scodelario, Thomas Brodie-Sangster, Dexter Darden, Will Poulter, Jacob Lofland, Rosa Salazar, Giancarlo Esposito, Patricia Clarkson, Aidan Gillen, Barry Pepper, Nathalie Emmanuel, Katherine McNamara, Walton Goggins
GÉNERO: Ciencia [Tienes que estar registrado y conectado para ver este vínculo] [Tienes que estar registrado y conectado para ver este vínculo] | [Tienes que estar registrado y conectado para ver este vínculo] [Tienes que estar registrado y conectado para ver este vínculo] [Tienes que estar registrado y conectado para ver este vínculo] [Tienes que estar registrado y conectado para ver este vínculo] Young Adult. [Tienes que estar registrado y conectado para ver este vínculo]

Capturas



Trailer

Info
CALIDAD DE VIDEO: BDRip m1080p MPEG4 Video (H264) 1920x800
CALIDAD DE AUDIO 1: Castellano AC3 5.1 448 Kbps
CALIDAD DE AUDIO 2: Inglés AC3 5.1 448 Kbps
SUBTITULOS: Incluye completos en español e inglés y forzados en español.
TAMAÑO: 6 GiB
Mediainfo:
Format : Matroska
Format version : Version 4 / Version 2
File size : 5.99 GiB
Duration : 2 h 23 min
Overall bit rate : 5 965 kb/s
Movie name : El corredor del laberinto 3: La cura mortal - [Tienes que estar registrado y conectado para ver este vínculo]
Encoded date : UTC 2018-04-26 14:50:17
Writing application : mkvmerge v22.0.0 ('At The End Of The World') 64-bit
Writing library : libebml v1.3.5 + libmatroska v1.4.8


Video
ID : 1
Format : AVC
Format/Info : Advanced Video Codec
Format profile : High@L4.1
Format settings : CABAC / 5 Ref Frames
Format settings, CABAC : Yes
Format settings, RefFrames : 5 frames
Codec ID : V_MPEG4/ISO/AVC
Duration : 2 h 23 min
Bit rate : 5 130 kb/s
Width : 1 920 pixels
Height : 800 pixels
Display aspect ratio : 2.40:1
Frame rate mode : Constant
Frame rate : 23.976 (24000/1001) FPS
Color space : YUV
Chroma subsampling : 4:2:0
Bit depth : 8 bits
Scan type : Progressive
Bits/(Pixel*Frame) : 0.139
Stream size : 5.16 GiB (86%)
Writing library : x264 core 155 r2893 b00bcaf
Encoding settings : cabac=1 / ref=5 / deblock=1:-3:-3 / analyse=0x3:0x113 / me=umh / subme=11 / psy=1 / psy_rd=1.10:0.05 / mixed_ref=0 / me_range=24 / chroma_me=1 / trellis=2 / 8x8dct=1 / cqm=0 / deadzone=21,11 / fast_pskip=1 / chroma_qp_offset=-3 / threads=24 / lookahead_threads=2 / sliced_threads=0 / nr=0 / decimate=1 / interlaced=0 / bluray_compat=0 / constrained_intra=0 / bframes=5 / b_pyramid=2 / b_adapt=2 / b_bias=0 / direct=1 / weightb=1 / open_gop=0 / weightp=2 / keyint=240 / keyint_min=24 / scenecut=40 / intra_refresh=0 / rc_lookahead=45 / rc=crf / mbtree=1 / crf=20.0 / qcomp=0.70 / qpmin=0 / qpmax=69 / qpstep=4 / vbv_maxrate=62500 / vbv_bufsize=78125 / crf_max=0.0 / nal_hrd=none / filler=0 / ip_ratio=1.40 / aq=1:1.10
Language : Spanish
Default : Yes
Forced : Yes
Color range : Limited
Color primaries : BT.709
Transfer characteristics : BT.709
Matrix coefficients : BT.709


Audio [Tienes que estar registrado y conectado para ver este vínculo]
ID : 2
Format : AC-3
Format/Info : Audio Coding 3
Format settings, Endianness : Big
Codec ID : A_AC3
Duration : 2 h 23 min
Bit rate mode : Constant
Bit rate : 448 kb/s
Channel(s) : 6 channels
Channel positions : Front: L C R, Side: L R, LFE
Sampling rate : 48.0 kHz
Frame rate : 31.250 FPS (1536 SPF)
Bit depth : 16 bits
Compression mode : Lossy
Delay relative to video : -21 ms
Stream size : 461 MiB (8%)
Title : AC-3
Language : Spanish
Service kind : Complete Main
Default : Yes
Forced : Yes


Audio [Tienes que estar registrado y conectado para ver este vínculo]
ID : 3
Format : AC-3
Format/Info : Audio Coding 3
Format settings, Endianness : Big
Codec ID : A_AC3
Duration : 2 h 23 min
Bit rate mode : Constant
Bit rate : 384 kb/s
Channel(s) : 6 channels
Channel positions : Front: L C R, Side: L R, LFE
Sampling rate : 48.0 kHz
Frame rate : 31.250 FPS (1536 SPF)
Bit depth : 16 bits
Compression mode : Lossy
Delay relative to video : -21 ms
Stream size : 395 MiB (6%)
Title : AC-3
Language : English
Service kind : Complete Main
Default : No
Forced : No


Text [Tienes que estar registrado y conectado para ver este vínculo]
ID : 4
Format : UTF-8
Codec ID : S_TEXT/UTF8
Codec ID/Info : UTF-8 Plain Text
Duration : 1 h 4 min
Bit rate : 0 b/s
Count of elements : 8
Stream size : 283 Bytes (0%)
Title : Forzados
Language : Spanish
Default : Yes
Forced : Yes


Text [Tienes que estar registrado y conectado para ver este vínculo]
ID : 5
Format : UTF-8
Codec ID : S_TEXT/UTF8
Codec ID/Info : UTF-8 Plain Text
Duration : 1 h 27 min
Bit rate : 48 b/s
Count of elements : 931
Stream size : 31.2 KiB (0%)
Title : Completos
Language : Spanish
Default : No
Forced : No


Text [Tienes que estar registrado y conectado para ver este vínculo]
ID : 6
Format : UTF-8
Codec ID : S_TEXT/UTF8
Codec ID/Info : UTF-8 Plain Text
Duration : 2 h 15 min
Bit rate : 35 b/s
Count of elements : 1475
Stream size : 35.5 KiB (0%)
Title : Completos
Language : English
Default : No
Forced : No


Menu
00:00:00.000 : :00:00:00.000
00:11:31.608 : :00:11:31.608
00:15:59.750 : :00:15:59.750
00:20:08.457 : :00:20:08.457
00:24:34.890 : :00:24:34.890
00:30:40.547 : :00:30:40.547
00:36:47.330 : :00:36:47.330
00:43:15.343 : :00:43:15.343
00:48:06.342 : :00:48:06.342
00:55:17.397 : :00:55:17.397
01:02:42.926 : :01:02:42.926
01:07:14.489 : :01:07:14.489
01:11:56.062 : :01:11:56.062
01:15:48.335 : :01:15:48.210
01:23:20.329 : :01:23:20.329
01:29:45.422 : :01:29:45.422
01:34:00.593 : :01:34:00.593
01:40:09.795 : :01:40:09.795
01:43:33.082 : :01:43:33.082
01:53:38.645 : :01:53:38.645
01:59:44.010 : :01:59:43.885
02:04:49.399 : :02:04:49.399
02:10:03.087 : :02:10:03.087
02:18:03.901 : :02:18:03.859


Enlaces Descarga
[Tienes que estar registrado y conectado para ver este vínculo] - [Tienes que estar registrado y conectado para ver este vínculo] - [Tienes que estar registrado y conectado para ver este vínculo] - [Tienes que estar registrado y conectado para ver este vínculo] - [Tienes que estar registrado y conectado para ver este vínculo] - [Tienes que estar registrado y conectado para ver este vínculo]
En algunos servidores (Tusfiles, Filebebo, Sendit, Userscloud...) es necesario estar registrado para descargar archivos grandes y a mayor velocidad.


Enlaces Online
[Tienes que estar registrado y conectado para ver este vínculo] - [Tienes que estar registrado y conectado para ver este vínculo] - [Tienes que estar registrado y conectado para ver este vínculo] - [Tienes que estar registrado y conectado para ver este vínculo]
Para ver online en Sendit, Userscloud y Filebebo necesitas estar registrado en su página y usar el navegador [Tienes que estar registrado y conectado para ver este vínculo]


Reproductor



NOTA: Por favor, si los enlaces están caidos avisa en un comentario para poder resubirlos. Gracias

______________________________________________________
Saludos  Smile
Volver arriba
Permisos de este foro:
No puedes responder a temas en este foro.