Comparte
Ir abajo
avatar
Admin
Administrador
Administrador
Sexo : Masculino
Mensajes : 1513
Puntos : 4770
Reputación : 1103
Fecha de inscripción : 02/04/2012
Localización : España

Fantástico Wonder Woman (2017) [Ver Online] [Descargar] [HD 1080p] [Español] [Rapidvideo]

el Dom 15 Oct 2017 - 0:43
Reputación del mensaje :100% (2 votos)

Ficha Técnica
TÍTULO ORIGINAL: Wonder Woman
AÑO: 2017
DURACIÓN: 141 min.
PAÍS: Estados Unidos
DIRECTOR: Patty Jenkins
REPARTO: Gal Gadot, Chris Pine, Robin Wright, Connie Nielsen, David Thewlis, Danny Huston, Elena Anaya, Lucy Davis, Ewen Bremner, Samantha Jo, Saïd Taghmaoui, Lisa Loven Kongsli, Florence Kasumba, Mayling Ng, Emily Carey, Doutzen Kroes
GÉNERO: Fantástico. Acción. Bélico. Aventuras | Superhéroes. Cómic. DC Comics. I Guerra Mundial
SINOPSIS: Antes de ser Wonder Woman (Gal Gadot) era Diana, princesa de las Amazonas, entrenada para ser una guerrera invencible. Diana fue criada en una isla paradisíaca protegida. Hasta que un día un piloto norteamericano (Chris Pine), que tiene un accidente y acaba en sus costas, le habla de un gran conflicto existente en el mundo [Primera Guerra Mundial]. Diana decide salir de la isla convencida de que puede detener la terrible amenaza. Mientras lucha junto a los hombres en la guerra que acabará con todas las guerras, Diana descubre todos sus poderes y su verdadero destino.

Capturas


Trailer

Info
CALIDAD DE VIDEO: BDRip m1080p MPEG4 Video (H264) 1920x800
CALIDAD DE AUDIO 1: Castellano AC-3 - 5.1 - 448 Kbps
CALIDAD DE AUDIO 2: Inglés AC-3 - 5.1 - 448 Kbps
SUBTITULOS: Incluye completos en español e inglés y forzados en español.
TAMAÑO: 4.88 GiB
Mediainfo:
Format                      : Matroska
Format version              : Version 4 / Version 2
File size                   : 4.88 GiB
Duration                    : 2 h 21 min
Overall bit rate            : 4 947 kb/s
Movie name                  : Wonder Woman - [Tienes que estar registrado y conectado para ver este vínculo]
Encoded date                : UTC 2018-05-31 20:55:19
Writing application         : mkvmerge v23.0.0 ('The Bride Said No') 64-bit
Writing library             : libebml v1.3.6 + libmatroska v1.4.9


Video
ID                          : 1
Format                      : AVC
Format/Info                 : Advanced Video Codec
Format profile              : High@L4.1
Format settings             : CABAC / 5 Ref Frames
Format settings, CABAC      : Yes
Format settings, RefFrames  : 5 frames
Codec ID                    : V_MPEG4/ISO/AVC
Duration                    : 2 h 21 min
Bit rate                    : 4 040 kb/s
Width                       : 1 920 pixels
Height                      : 800 pixels
Display aspect ratio        : 2.40:1
Frame rate mode             : Constant
Frame rate                  : 23.976 (24000/1001) FPS
Color space                 : YUV
Chroma subsampling          : 4:2:0
Bit depth                   : 8 bits
Scan type                   : Progressive
Bits/(Pixel*Frame)          : 0.110
Stream size                 : 3.99 GiB (82%)
Title                       : AVC
Writing library             : x264 core 146 r2538 121396c
Encoding settings           : cabac=1 / ref=5 / deblock=1👎-1 / analyse=0x3:0x113 / me=umh / subme=10 / psy=1 / psy_rd=1.00:0.00 / mixed_ref=1 / me_range=32 / chroma_me=1 / trellis=2 / 8x8dct=1 / cqm=0 / deadzone=21,11 / fast_pskip=0 / chroma_qp_offset=-2 / threads=3 / lookahead_threads=1 / sliced_threads=0 / nr=0 / decimate=1 / interlaced=0 / bluray_compat=0 / constrained_intra=0 / bframes=8 / b_pyramid=2 / b_adapt=2 / b_bias=0 / direct=3 / weightb=1 / open_gop=0 / weightp=2 / keyint=250 / keyint_min=23 / scenecut=40 / intra_refresh=0 / rc=2pass / mbtree=0 / bitrate=4040 / ratetol=1.0 / qcomp=0.60 / qpmin=0 / qpmax=69 / qpstep=4 / cplxblur=20.0 / qblur=0.5 / ip_ratio=1.40 / pb_ratio=1.30 / aq=2:1.00
Language                    : English
Default                     : Yes
Forced                      : No


Audio [Tienes que estar registrado y conectado para ver este vínculo]
ID                          : 2
Format                      : AC-3
Format/Info                 : Audio Coding 3
Format settings, Endianness : Big
Codec ID                    : A_AC3
Duration                    : 2 h 21 min
Bit rate mode               : Constant
Bit rate                    : 448 kb/s
Channel(s)                  : 6 channels
Channel positions           : Front: L C R, Side: L R, LFE
Sampling rate               : 48.0 kHz
Frame rate                  : 31.250 FPS (1536 SPF)
Bit depth                   : 16 bits
Compression mode            : Lossy
Stream size                 : 453 MiB (9%)
Title                       : AC-3
Language                    : Spanish
Service kind                : Complete Main
Default                     : Yes
Forced                      : Yes


Audio [Tienes que estar registrado y conectado para ver este vínculo]
ID                          : 3
Format                      : AC-3
Format/Info                 : Audio Coding 3
Format settings, Endianness : Big
Codec ID                    : A_AC3
Duration                    : 2 h 21 min
Bit rate mode               : Constant
Bit rate                    : 448 kb/s
Channel(s)                  : 6 channels
Channel positions           : Front: L C R, Side: L R, LFE
Sampling rate               : 48.0 kHz
Frame rate                  : 31.250 FPS (1536 SPF)
Bit depth                   : 16 bits
Compression mode            : Lossy
Stream size                 : 453 MiB (9%)
Title                       : AC-3
Language                    : English
Service kind                : Complete Main
Default                     : No
Forced                      : No


Text [Tienes que estar registrado y conectado para ver este vínculo]
ID                          : 4
Format                      : UTF-8
Codec ID                    : S_TEXT/UTF8
Codec ID/Info               : UTF-8 Plain Text
Duration                    : 2 h 18 min
Bit rate                    : 0 b/s
Count of elements           : 19
Stream size                 : 548 Bytes (0%)
Title                       : Forzados
Language                    : Spanish
Default                     : Yes
Forced                      : Yes


Text [Tienes que estar registrado y conectado para ver este vínculo]
ID                          : 5
Format                      : UTF-8
Codec ID                    : S_TEXT/UTF8
Codec ID/Info               : UTF-8 Plain Text
Duration                    : 2 h 20 min
Bit rate                    : 44 b/s
Count of elements           : 1587
Stream size                 : 45.3 KiB (0%)
Title                       : Completos
Language                    : Spanish
Default                     : No
Forced                      : No


Text [Tienes que estar registrado y conectado para ver este vínculo]
ID                          : 6
Format                      : PGS
Muxing mode                 : zlib
Codec ID                    : S_HDMV/PGS
Codec ID/Info               : Picture based subtitle format used on BDs/HD-DVDs
Duration                    : 2 h 18 min
Bit rate                    : 328 b/s
Count of elements           : 36
Stream size                 : 333 KiB (0%)
Title                       : Forzados PSG
Language                    : Spanish
Default                     : No
Forced                      : No


Text [Tienes que estar registrado y conectado para ver este vínculo]
ID                          : 7
Format                      : PGS
Muxing mode                 : zlib
Codec ID                    : S_HDMV/PGS
Codec ID/Info               : Picture based subtitle format used on BDs/HD-DVDs
Duration                    : 2 h 20 min
Bit rate                    : 26.3 kb/s
Count of elements           : 3202
Stream size                 : 26.4 MiB (1%)
Title                       : Completos PSG
Language                    : Spanish
Default                     : No
Forced                      : No


Text [Tienes que estar registrado y conectado para ver este vínculo]
ID                          : 8
Format                      : UTF-8
Codec ID                    : S_TEXT/UTF8
Codec ID/Info               : UTF-8 Plain Text
Duration                    : 2 h 20 min
Bit rate                    : 44 b/s
Count of elements           : 1586
Stream size                 : 46.1 KiB (0%)
Title                       : Completos
Language                    : English
Default                     : No
Forced                      : No


Menu
00:00:00.000                : en:Studio Logo
00:00:47.005                : en:Story of mankind and creation of Amazons
00:10:26.918                : en:Atiope trains Diana harder than ever
00:17:31.550                : en:Someone infiltrates the island and the surprise attack
00:23:12.558                : en:Trevor tells the Amazonians about the war raging the world
00:28:05.058                : en:Diana makes up her mind to save the mankind
00:35:28.501                : en:Diana and Trevor leave the island
00:43:55.132                : en:Diana arrives in London and clothes to fit in society
00:52:13.672                : en:Trevor is being followed
00:54:25.554                : en:Trevor hands over the notebook and secrets it revealed
01:00:30.502                : en:Trevor goes against the system, making a team
01:07:38.263                : en:Ludendorff is not ready to give in
01:12:23.714                : en:Diana can't sit on the sidelines anymore
01:24:08.252                : en:Favorite pass time when there is no war to fight
01:29:16.351                : en:Attending the gala and Diana understands the way of the world
01:45:09.094                : en:Diana finally meets Ares who shows her the truth
01:57:42.097                : en:Diana understand the flaws of humanity to save them
02:06:41.469                : en:Only love can save this humankind
02:10:40.791                : en:End Credits


Enlaces Descarga
Uptobox - Userscloud - Filebebo - 1fichier - Depositfiles - Rapidgator - Wayupload
En algunos servidores (Tusfiles, Filebebo, Userscloud...) es necesario estar registrado para descargar a mayor velocidad.


Enlaces Online
Rapidvideo - Openload - Vidoza - Streamango - Vidlox - Userscloud
Para ver online en Userscloud necesitas estar registrado en su página y usar el navegador Google Chrome


Reproductor



NOTA: Por favor, si los enlaces están caidos avisa en un comentario para poder resubirlos. Gracias


Última edición por Admin el Sáb 2 Jun 2018 - 0:59, editado 5 veces
avatar
Admin
Administrador
Administrador
Sexo : Masculino
Mensajes : 1513
Puntos : 4770
Reputación : 1103
Fecha de inscripción : 02/04/2012
Localización : España

Fantástico Re: Wonder Woman (2017) [Ver Online] [Descargar] [HD 1080p] [Español] [Rapidvideo]

el Sáb 2 Jun 2018 - 1:11
Resubida - 02.06.2018

______________________________________________________
Saludos  Smile
Volver arriba
Permisos de este foro:
No puedes responder a temas en este foro.