Comparte
Ir abajo
avatar
Admin
Administrador
Administrador
Sexo : Masculino
Mensajes : 1514
Puntos : 4771
Reputación : 1103
Fecha de inscripción : 02/04/2012
Localización : España

Bélico Dunkerque (2017) [Ver Online] [Descargar] [HD 1080p] [Castellano - Inglés] [Bélico]

el Sáb 9 Dic 2017 - 3:42
Reputación del mensaje :100% (2 votos)

Ficha Técnica
SINOPSIS: Año 1940, en plena II Guerra Mundial. En las playas de Dunkerque, cientos de miles de soldados de las tropas británicas y francesas se encuentran rodeados por el avance del ejército alemán, que ha invadido Francia. Atrapados en la playa, con el mar cortándoles el paso, las tropas se enfrentan a una situación angustiosa que empeora a medida que el enemigo se acerca.
TÍTULO ORIGINAL: Dunkirk
AÑO: 2017
DURACIÓN: 107 min.
PAÍS: Estados Unidos
DIRECTOR: Christopher Nolan
REPARTO: Fionn Whitehead, Mark Rylance, Kenneth Branagh, Tom Hardy, Cillian Murphy, Barry Keoghan, Harry Styles, Jack Lowden, Aneurin Barnard, James D’Arcy, Tom Glynn-Carney, Bradley Hall, Damien Bonnard, Jochum ten Haaf, Michel Biel
GÉNERO: Bélico. Drama | II Guerra Mundial. Supervivencia. Histórico. Basado en hechos reales

Capturas



Trailer

Info
CALIDAD DE VIDEO: BDRip m1080p MPEG4 Video (H264) 1904x1072
CALIDAD DE AUDIO 1: Castellano AC-3 - 5.1 - 448 Kbps
CALIDAD DE AUDIO 2: Inglés AC-3 - 5.1 - 448 Kbps
SUBTITULOS: Incluye completos  en Español e Inglés y forzados en Español
TAMAÑO: 4.50 GiB
Mediainfo:
Format                      : Matroska
Format version              : Version 4 / Version 2
File size                   : 4.50 GiB
Duration                    : 1 h 46 min
Overall bit rate            : 6 039 kb/s
Movie name                  : Dunkerque - [Tienes que estar registrado y conectado para ver este vínculo]
Encoded date                : UTC 2018-06-02 11:49:05
Writing application         : mkvmerge v23.0.0 ('The Bride Said No') 64-bit
Writing library             : libebml v1.3.6 + libmatroska v1.4.9


Video
ID                          : 1
Format                      : AVC
Format/Info                 : Advanced Video Codec
Format profile              : High@L4.1
Format settings             : CABAC / 4 Ref Frames
Format settings, CABAC      : Yes
Format settings, RefFrames  : 4 frames
Codec ID                    : V_MPEG4/ISO/AVC
Duration                    : 1 h 46 min
Bit rate                    : 5 133 kb/s
Width                       : 1 904 pixels
Height                      : 1 072 pixels
Display aspect ratio        : 16:9
Frame rate mode             : Constant
Frame rate                  : 23.976 (24000/1001) FPS
Color space                 : YUV
Chroma subsampling          : 4:2:0
Bit depth                   : 8 bits
Scan type                   : Progressive
Bits/(Pixel*Frame)          : 0.105
Stream size                 : 3.82 GiB (85%)
Title                       : AVC
Writing library             : x264 core 146 r2538 121396c
Encoding settings           : cabac=1 / ref=3 / deblock=1👎-1 / analyse=0x3:0x113 / me=hex / subme=7 / psy=1 / psy_rd=1.00:0.15 / mixed_ref=1 / me_range=16 / chroma_me=1 / trellis=2 / 8x8dct=1 / cqm=0 / deadzone=21,11 / fast_pskip=1 / chroma_qp_offset=-3 / threads=6 / lookahead_threads=1 / sliced_threads=0 / nr=0 / decimate=1 / interlaced=0 / bluray_compat=0 / constrained_intra=0 / bframes=3 / b_pyramid=2 / b_adapt=1 / b_bias=0 / direct=1 / weightb=1 / open_gop=0 / weightp=2 / keyint=240 / keyint_min=23 / scenecut=40 / intra_refresh=0 / rc_lookahead=40 / rc=2pass / mbtree=1 / bitrate=5133 / ratetol=1.0 / qcomp=0.80 / qpmin=0 / qpmax=69 / qpstep=4 / cplxblur=20.0 / qblur=0.5 / vbv_maxrate=62500 / vbv_bufsize=78125 / nal_hrd=none / filler=0 / ip_ratio=1.40 / aq=1:1.00
Default                     : Yes
Forced                      : No


Audio [Tienes que estar registrado y conectado para ver este vínculo]
ID                          : 2
Format                      : AC-3
Format/Info                 : Audio Coding 3
Format settings, Endianness : Big
Codec ID                    : A_AC3
Duration                    : 1 h 46 min
Bit rate mode               : Constant
Bit rate                    : 448 kb/s
Channel(s)                  : 6 channels
Channel positions           : Front: L C R, Side: L R, LFE
Sampling rate               : 48.0 kHz
Frame rate                  : 31.250 FPS (1536 SPF)
Bit depth                   : 16 bits
Compression mode            : Lossy
Stream size                 : 342 MiB (7%)
Title                       : AC-3
Language                    : Spanish
Service kind                : Complete Main
Default                     : Yes
Forced                      : Yes


Audio [Tienes que estar registrado y conectado para ver este vínculo]
ID                          : 3
Format                      : AC-3
Format/Info                 : Audio Coding 3
Format settings, Endianness : Big
Codec ID                    : A_AC3
Duration                    : 1 h 46 min
Bit rate mode               : Constant
Bit rate                    : 448 kb/s
Channel(s)                  : 6 channels
Channel positions           : Front: L C R, Side: L R, LFE
Sampling rate               : 48.0 kHz
Frame rate                  : 31.250 FPS (1536 SPF)
Bit depth                   : 16 bits
Compression mode            : Lossy
Stream size                 : 342 MiB (7%)
Title                       : AC-3
Language                    : English
Service kind                : Complete Main
Default                     : No
Forced                      : No


Text [Tienes que estar registrado y conectado para ver este vínculo]
ID                          : 4
Format                      : UTF-8
Codec ID                    : S_TEXT/UTF8
Codec ID/Info               : UTF-8 Plain Text
Duration                    : 1 h 45 min
Bit rate                    : 0 b/s
Count of elements           : 20
Stream size                 : 603 Bytes (0%)
Title                       : Forzados
Language                    : Spanish
Default                     : Yes
Forced                      : Yes


Text [Tienes que estar registrado y conectado para ver este vínculo]
ID                          : 5
Format                      : PGS
Muxing mode                 : zlib
Codec ID                    : S_HDMV/PGS
Codec ID/Info               : Picture based subtitle format used on BDs/HD-DVDs
Duration                    : 1 h 45 min
Bit rate                    : 559 b/s
Count of elements           : 40
Stream size                 : 433 KiB (0%)
Title                       : Forzados PGS
Language                    : Spanish
Default                     : No
Forced                      : No


Text [Tienes que estar registrado y conectado para ver este vínculo]
ID                          : 6
Format                      : PGS
Muxing mode                 : zlib
Codec ID                    : S_HDMV/PGS
Codec ID/Info               : Picture based subtitle format used on BDs/HD-DVDs
Duration                    : 1 h 46 min
Bit rate                    : 15.1 kb/s
Count of elements           : 1388
Stream size                 : 11.4 MiB (0%)
Title                       : Completos PGS
Language                    : Spanish
Default                     : No
Forced                      : No


Text [Tienes que estar registrado y conectado para ver este vínculo]
ID                          : 7
Format                      : PGS
Muxing mode                 : zlib
Codec ID                    : S_HDMV/PGS
Codec ID/Info               : Picture based subtitle format used on BDs/HD-DVDs
Duration                    : 1 h 45 min
Bit rate                    : 19.9 kb/s
Count of elements           : 1718
Stream size                 : 15.0 MiB (0%)
Title                       : Completos PGS
Language                    : English
Default                     : No
Forced                      : No


Menu
00:00:00.000                : en:00:00:00.000
00:03:06.103                : en:00:03:06.103
00:07:57.977                : en:00:07:57.977
00:11:12.839                : en:00:11:12.839
00:16:15.766                : en:00:16:15.766
00:20:07.498                : en:00:20:07.498
00:24:07.988                : en:00:24:07.988
00:28:57.069                : en:00:28:57.069
00:32:55.348                : en:00:32:55.348
00:39:01.839                : en:00:39:01.839
00:42:44.187                : en:00:42:44.187
00:46:47.179                : en:00:46:47.179
00:50:55.636                : en:00:50:55.636
00:56:12.077                : en:00:56:12.077
01:00:02.265                : en:01:00:02.265
01:05:41.229                : en:01:05:41.229
01:10:14.544                : en:01:10:14.544
01:14:33.761                : en:01:14:33.761
01:19:29.723                : en:01:19:29.723
01:21:56.995                : en:01:21:56.995


Enlaces Descarga
Uptobox - Userscloud - 1fichier - Depositfiles - Rapidgator - Wayupload
En algunos servidores (Tusfiles, Filebebo, Userscloud...) es necesario estar registrado para descargar a mayor velocidad.


Enlaces Online
OK.ru - Rapidvideo - Openload - Vidoza - Streamango - Vidlox - Userscloud
Para ver online en Userscloud necesitas estar registrado en su página y usar el navegador Google Chrome


Reproductor
(ok.ru)



NOTA: Por favor, si los enlaces están caidos avisa en un comentario para poder resubirlos. Gracias


Última edición por Admin el Dom 10 Jun 2018 - 20:43, editado 6 veces (Razón : Actualización)
avatar
Admin
Administrador
Administrador
Sexo : Masculino
Mensajes : 1514
Puntos : 4771
Reputación : 1103
Fecha de inscripción : 02/04/2012
Localización : España

Bélico Re: Dunkerque (2017) [Ver Online] [Descargar] [HD 1080p] [Castellano - Inglés] [Bélico]

el Dom 10 Jun 2018 - 20:48
Actualizado 10.06.2018

______________________________________________________
Saludos  Smile
Volver arriba
Permisos de este foro:
No puedes responder a temas en este foro.