Comparte
Ir abajo
avatar
Admin
Administrador
Administrador
Sexo : Masculino
Mensajes : 1520
Puntos : 4791
Reputación : 1103
Fecha de inscripción : 02/04/2012
Localización : España

Drama Molly's Game (2017) [Ver Online] [Descargar] [HD 1080p] [Spanish - English] [Drama]

el Mar 1 Mayo 2018 - 15:45
Reputación del mensaje :100% (2 votos)

Ficha Técnica
SINOPSIS: Se centra en la vida de Molly Bloom, una esquiadora de talla mundial que llegó a ser millonaria antes de los 21 años. Tras perderse los Juegos Olímpicos, Molly se trasladó a vivir a Los Ángeles, donde incluso trabajó de camarera. Gracias a su inteligencia y sus dotes empresariales, la joven acabó ganando millones de dólares en el mundo del póker antes de que el FBI la investigara.
TÍTULO ORIGINAL: Molly’s Game
AÑO: [Tienes que estar registrado y conectado para ver este vínculo]
DURACIÓN: 141 min.
PAÍS: Estados Unidos
DIRECTOR: Aaron Sorkin
REPARTO: Jessica Chastain, Idris Elba, Kevin Costner, Michael Cera, Samantha Isler, Chris O’Dowd, Graham Greene, Jeremy Strong, Bill Camp, Brian d’Arcy James, Claire Rankin, J.C. MacKenzie
GÉNERO: [Tienes que estar registrado y conectado para ver este vínculo] | [Tienes que estar registrado y conectado para ver este vínculo] [Tienes que estar registrado y conectado para ver este vínculo] Basado en hechos reales

Capturas



Trailer

Info
CALIDAD DE VIDEO: BDRip m1080p MPEG4 Video (H264) 1920×
CALIDAD DE AUDIO 1: Castellano AC3 5.1 448 Kbps
CALIDAD DE AUDIO 2: Inglés AC3 5.1 384 Kbps
SUBTITULOS: Incluye forzados en español y completos en español e inglés.
TAMAÑO: 4.44 GiB
Mediainfo:
Format : Matroska
Format version : Version 4 / Version 2
File size : 4.44 GiB
Duration : 2 h 20 min
Overall bit rate : 4 507 kb/s
Movie name : Molly's Game - [Tienes que estar registrado y conectado para ver este vínculo]
Encoded date : UTC 2018-04-30 14:25:15
Writing application : mkvmerge v22.0.0 ('At The End Of The World') 64-bit
Writing library : libebml v1.3.5 + libmatroska v1.4.8


Video
ID : 1
Format : AVC
Format/Info : Advanced Video Codec
Format profile : High@L4.1
Format settings : CABAC / 5 Ref Frames
Format settings, CABAC : Yes
Format settings, RefFrames : 5 frames
Codec ID : V_MPEG4/ISO/AVC
Duration : 2 h 20 min
Bit rate : 3 672 kb/s
Width : 1 920 pixels
Height : 800 pixels
Display aspect ratio : 2.40:1
Frame rate mode : Constant
Frame rate : 23.976 (24000/1001) FPS
Color space : YUV
Chroma subsampling : 4:2:0
Bit depth : 8 bits
Scan type : Progressive
Bits/(Pixel*Frame) : 0.100
Stream size : 3.62 GiB (81%)
Writing library : x264 core 148 r2708 86b7198
Encoding settings : cabac=1 / ref=5 / deblock=1:-3:-3 / analyse=0x3:0x113 / me=umh / subme=11 / psy=1 / psy_rd=1.10:0.05 / mixed_ref=0 / me_range=24 / chroma_me=1 / trellis=2 / 8x8dct=1 / cqm=0 / deadzone=21,11 / fast_pskip=1 / chroma_qp_offset=-3 / threads=12 / lookahead_threads=1 / sliced_threads=0 / nr=0 / decimate=1 / interlaced=0 / bluray_compat=0 / constrained_intra=0 / bframes=5 / b_pyramid=2 / b_adapt=2 / b_bias=0 / direct=1 / weightb=1 / open_gop=0 / weightp=2 / keyint=240 / keyint_min=24 / scenecut=40 / intra_refresh=0 / rc_lookahead=45 / rc=crf / mbtree=1 / crf=20.0 / qcomp=0.70 / qpmin=0 / qpmax=69 / qpstep=4 / vbv_maxrate=62500 / vbv_bufsize=78125 / crf_max=0.0 / nal_hrd=none / filler=0 / ip_ratio=1.40 / aq=1:1.10
Language : Spanish
Default : Yes
Forced : Yes
Color range : Limited
Color primaries : BT.709
Transfer characteristics : BT.709
Matrix coefficients : BT.709


Audio [Tienes que estar registrado y conectado para ver este vínculo]
ID : 2
Format : AC-3
Format/Info : Audio Coding 3
Format settings, Endianness : Big
Codec ID : A_AC3
Duration : 2 h 20 min
Bit rate mode : Constant
Bit rate : 448 kb/s
Channel(s) : 6 channels
Channel positions : Front: L C R, Side: L R, LFE
Sampling rate : 48.0 kHz
Frame rate : 31.250 FPS (1536 SPF)
Bit depth : 16 bits
Compression mode : Lossy
Stream size : 452 MiB (10%)
Title : AC-3
Language : Spanish
Service kind : Complete Main
Default : Yes
Forced : Yes


Audio [Tienes que estar registrado y conectado para ver este vínculo]
ID : 3
Format : AC-3
Format/Info : Audio Coding 3
Format settings, Endianness : Big
Codec ID : A_AC3
Duration : 2 h 20 min
Bit rate mode : Constant
Bit rate : 384 kb/s
Channel(s) : 6 channels
Channel positions : Front: L C R, Side: L R, LFE
Sampling rate : 48.0 kHz
Frame rate : 31.250 FPS (1536 SPF)
Bit depth : 16 bits
Compression mode : Lossy
Stream size : 387 MiB (9%)
Title : AC-3
Language : English
Service kind : Complete Main
Default : No
Forced : No


Text [Tienes que estar registrado y conectado para ver este vínculo]
ID : 4
Format : UTF-8
Codec ID : S_TEXT/UTF8
Codec ID/Info : UTF-8 Plain Text
Duration : 2 h 11 min
Bit rate : 0 b/s
Count of elements : 17
Stream size : 454 Bytes (0%)
Title : Forzados
Language : Spanish
Default : Yes
Forced : Yes


Text [Tienes que estar registrado y conectado para ver este vínculo]
ID : 5
Format : UTF-8
Codec ID : S_TEXT/UTF8
Codec ID/Info : UTF-8 Plain Text
Duration : 2 h 12 min
Bit rate : 106 b/s
Count of elements : 2663
Stream size : 103 KiB (0%)
Title : Completos
Language : Spanish
Default : No
Forced : No


Text [Tienes que estar registrado y conectado para ver este vínculo]
ID : 6
Format : UTF-8
Codec ID : S_TEXT/UTF8
Codec ID/Info : UTF-8 Plain Text
Duration : 2 h 12 min
Bit rate : 113 b/s
Count of elements : 3242
Stream size : 110 KiB (0%)
Title : Completos
Language : English
Default : No
Forced : No


Menu
00:00:00.000 : :00:00:00.000
00:05:54.771 : :00:05:54.479
00:09:55.053 : :00:09:55.053
00:16:53.137 : :00:16:53.137
00:24:03.108 : :00:24:03.108
00:29:16.546 : :00:29:16.505
00:39:01.589 : :00:39:01.589
00:48:11.514 : :00:48:11.347
00:54:00.320 : :00:54:00.154
01:04:07.260 : :01:04:07.260
01:11:10.433 : :01:11:10.391
01:18:03.679 : :01:18:03.679
01:23:10.986 : :01:23:10.986
01:29:09.928 : :01:29:09.928
01:34:19.904 : :01:34:19.904
01:44:30.598 : :01:44:30.431
01:53:43.358 : :01:53:43.275
02:01:38.416 : :02:01:38.249
02:07:20.466 : :02:07:20.466
02:13:25.206 : :02:13:24.997


Enlaces Descarga
Tusfiles - Uptobox - 1fichier - Depositfiles - Rapidgator - Userscloud - Wayupload
En algunos servidores (Tusfiles, Userscloud...) es necesario estar registrado para descargar a mayor velocidad.


Enlaces Online
Rapidvideo - Openload - Vidoza - Streamango - Vidlox
Para ver online en Sendit, Userscloud y Filebebo necesitas estar registrado en su página y usar el navegador Google Chrome


Reproductor



NOTA: Por favor, si los enlaces están caidos avisa en un comentario para poder resubirlos. Gracias

______________________________________________________
Saludos  Smile
Volver arriba
Permisos de este foro:
No puedes responder a temas en este foro.