Comparte
Ir abajo
avatar
Admin
Administrador
Administrador
Sexo : Masculino
Mensajes : 2264
Puntos : 6891
Reputación : 1323
Fecha de inscripción : 02/04/2012
Localización : España

Comedia The Disaster Artist (2017) [Ver Online] [Descargar] [HD 1080p] [Spa - Eng] [Comedia]

el Mar 1 Mayo 2018 - 22:32
Reputación del mensaje :100% (2 votos)

Ficha Técnica
SINOPSIS: Narra la historia real de la producción de la película ‘The Room’, que ha sido considerada como “una de las peores películas de la historia”. Dirigida en 2003 por Tommy Wiseau, ‘The Room’ se ha estado proyectando en salas -completamente llenas- por toda Norteamérica desde hace más de una década. ‘The Disaster Artist’ es una comedia sobre dos inadaptados en busca de un sueño. Cuando el mundo los rechaza, deciden hacer su propia película, un film maravillosamente espantoso gracias a sus momentos involuntariamente cómicos, sus tramas dispersas y sus terribles interpretaciones.
TÍTULO ORIGINAL: The Disaster Artist
AÑO: 2017
DURACIÓN: 106 min.
PAÍS: Estados Unidos
DIRECTOR: James Franco
REPARTO: James Franco, Dave Franco, Seth Rogen, Alison Brie, Josh Hutcherson, Zac Efron, Jacki Weaver, Sharon Stone, Bryan Cranston, Kate Upton, Hannibal Buress, Nathan Fielder, Jerrod Carmichael, Zoey Deutch, Kristen Bell, Lizzy Caplan, Megan Mullally, Jason Mantzoukas, Adam Scott, Eliza Coupe, J.J. Abrams, Kevin Smith, Tommy Wiseau, Melanie Griffith, Judd Apatow, Christopher Mintz-Plasse, Zach Braff, Randall Park, Greg Sestero, Bob Odenkirk
GÉNERO: [Tienes que estar registrado y conectado para ver este vínculo] | Cine dentro del cine. Basado en hechos reales [Tienes que estar registrado y conectado para ver este vínculo] [Tienes que estar registrado y conectado para ver este vínculo]

Capturas



Trailer

Info
CALIDAD DE VIDEO: BDRip m1080p MPEG4 Video (H264) 1920×800
CALIDAD DE AUDIO 1: Castellano AC3 5.1 640 Kbps
CALIDAD DE AUDIO 2: Inglés AC3 5.1 448 Kbps
SUBTITULOS: Incluye forzados en español y completos en español e inglés.
TAMAÑO: 4.49 GiB
Mediainfo:
Format                      : Matroska
Format version              : Version 4 / Version 2
File size                   : 4.49 GiB
Duration                    : 1 h 43 min
Overall bit rate            : 6 204 kb/s
Movie name                  : The Disaster Artist - [Tienes que estar registrado y conectado para ver este vínculo]
Encoded date                : UTC 2018-05-01 01:27:31
Writing application         : mkvmerge v22.0.0 ('At The End Of The World') 64-bit
Writing library             : libebml v1.3.5 + libmatroska v1.4.8


Video
ID                          : 1
Format                      : AVC
Format/Info                 : Advanced Video Codec
Format profile              : High@L4.1
Format settings             : CABAC / 2 Ref Frames
Format settings, CABAC      : Yes
Format settings, RefFrames  : 2 frames
Codec ID                    : V_MPEG4/ISO/AVC
Duration                    : 1 h 43 min
Bit rate                    : 4 906 kb/s
Width                       : 1 920 pixels
Height                      : 800 pixels
Display aspect ratio        : 2.40:1
Frame rate mode             : Constant
Frame rate                  : 23.976 (24000/1001) FPS
Color space                 : YUV
Chroma subsampling          : 4:2:0
Bit depth                   : 8 bits
Scan type                   : Progressive
Bits/(Pixel*Frame)          : 0.133
Stream size                 : 3.55 GiB (79%)
Language                    : Spanish
Default                     : Yes
Forced                      : Yes


Audio [Tienes que estar registrado y conectado para ver este vínculo]
ID                          : 2
Format                      : AC-3
Format/Info                 : Audio Coding 3
Format settings, Endianness : Big
Codec ID                    : A_AC3
Duration                    : 1 h 43 min
Bit rate mode               : Constant
Bit rate                    : 640 kb/s
Channel(s)                  : 6 channels
Channel positions           : Front: L C R, Side: L R, LFE
Sampling rate               : 48.0 kHz
Frame rate                  : 31.250 FPS (1536 SPF)
Bit depth                   : 16 bits
Compression mode            : Lossy
Delay relative to video     : 18 ms
Stream size                 : 474 MiB (10%)
Title                       : AC-3
Language                    : Spanish
Service kind                : Complete Main
Default                     : Yes
Forced                      : Yes


Audio [Tienes que estar registrado y conectado para ver este vínculo]
ID                          : 3
Format                      : AC-3
Format/Info                 : Audio Coding 3
Format settings, Endianness : Big
Codec ID                    : A_AC3
Duration                    : 1 h 43 min
Bit rate mode               : Constant
Bit rate                    : 640 kb/s
Channel(s)                  : 6 channels
Channel positions           : Front: L C R, Side: L R, LFE
Sampling rate               : 48.0 kHz
Frame rate                  : 31.250 FPS (1536 SPF)
Bit depth                   : 16 bits
Compression mode            : Lossy
Delay relative to video     : 18 ms
Stream size                 : 475 MiB (10%)
Title                       : AC-3
Language                    : English
Service kind                : Complete Main
Default                     : No
Forced                      : No


Text [Tienes que estar registrado y conectado para ver este vínculo]
ID                          : 4
Format                      : UTF-8
Codec ID                    : S_TEXT/UTF8
Codec ID/Info               : UTF-8 Plain Text
Duration                    : 1 h 41 min
Bit rate                    : 4 b/s
Count of elements           : 127
Stream size                 : 3.60 KiB (0%)
Title                       : Forzados
Language                    : Spanish
Default                     : Yes
Forced                      : Yes


Text [Tienes que estar registrado y conectado para ver este vínculo]
ID                          : 5
Format                      : UTF-8
Codec ID                    : S_TEXT/UTF8
Codec ID/Info               : UTF-8 Plain Text
Duration                    : 1 h 42 min
Bit rate                    : 77 b/s
Count of elements           : 1862
Stream size                 : 58.1 KiB (0%)
Title                       : Completos
Language                    : Spanish
Default                     : No
Forced                      : No


Text [Tienes que estar registrado y conectado para ver este vínculo]
ID                          : 6
Format                      : PGS
Muxing mode                 : zlib
Codec ID                    : S_HDMV/PGS
Codec ID/Info               : Picture based subtitle format used on BDs/HD-DVDs
Duration                    : 1 h 42 min
Bit rate                    : 49.3 kb/s
Count of elements           : 4292
Stream size                 : 36.2 MiB (1%)
Title                       : Completos
Language                    : Spanish
Default                     : No
Forced                      : No


Text [Tienes que estar registrado y conectado para ver este vínculo]
ID                          : 7
Format                      : UTF-8
Codec ID                    : S_TEXT/UTF8
Codec ID/Info               : UTF-8 Plain Text
Duration                    : 1 h 42 min
Bit rate                    : 89 b/s
Count of elements           : 2159
Stream size                 : 67.1 KiB (0%)
Title                       : Completos
Language                    : English
Default                     : No
Forced                      : No


Menu
00:00:00.000                : en:00:00:00.000
00:05:38.667                : en:00:05:39.673
00:13:53.953                : en:00:13:54.959
00:20:17.294                : en:00:20:18.300
00:24:26.835                : en:00:24:27.841
00:30:47.758                : en:00:30:48.764
00:37:04.509                : en:00:37:05.515
00:43:15.713                : en:00:43:16.719
00:49:26.375                : en:00:49:27.381
00:56:48.942                : en:00:56:49.948
01:02:25.111                : en:01:02:26.117
01:08:23.553                : en:01:08:24.559
01:16:56.148                : en:01:16:57.154
01:21:24.791                : en:01:21:25.797
01:28:39.184                : en:01:28:40.190
01:34:52.348                : en:01:34:53.354


Enlaces Descarga
Tusfiles - Uptobox - 1fichier - Depositfiles - Rapidgator - Userscloud - Wayupload
En algunos servidores (Tusfiles, Userscloud...) es necesario estar registrado para descargar a mayor velocidad.


Enlaces Online
Rapidvideo - Vidoza - Streamango - Vidlox - Userscloud - Downace
Para ver online en Userscloud necesitas estar registrado en su página y usar el navegador Google Chrome


Reproductor



NOTA: Por favor, si los enlaces están caidos avisa en un comentario para poder resubirlos. Gracias

______________________________________________________
[Tienes que estar registrado y conectado para ver este vínculo]
Saludos  Smile
Volver arriba
Permisos de este foro:
No puedes responder a temas en este foro.