Comparte
Ir abajo
avatar
Admin
Administrador
Administrador
Sexo : Masculino
Mensajes : 2217
Puntos : 6759
Reputación : 1322
Fecha de inscripción : 02/04/2012
Localización : España

Comedia La peor semana (2018) [Ver Online] [Descargar] [HD 1080p] [Spanish - English] [Comedia]

el Miér 2 Mayo 2018 - 18:45
Reputación del mensaje :100% (1 voto)

Ficha Técnica
SINOPSIS: Un devoto padre de clase media (Adam Sandler) está decidido a pagar la boda de su hija a pesar de las insistencias del padre del novio, que es mucho más rico (Chris Rock). Una serie de calamidades obliga a los padres (y sus familias) a unirse y soportar la semana más larga de sus vidas.
TÍTULO ORIGINAL: The Week Of
AÑO: [Tienes que estar registrado y conectado para ver este vínculo]
DURACIÓN: 116 min.
PAÍS: Estados Unidos
DIRECTOR: Robert Smigel
REPARTO: Adam Sandler, Chris Rock, Steve Buscemi, Rob Morgan, Andrew Polk, Scott Cohen, Rachel Dratch, Roland Buck III, Patricia Belcher, Xiren Wang, Lynn Marocola, Melanie Nicholls-King, Liz Larsen, Maury Ginsberg, Noah Robbins, Joel Garland, Whitney Rae Grandell, Garry Pastore, Michael James Levy, Scott Martin
GÉNERO: [Tienes que estar registrado y conectado para ver este vínculo] | [Tienes que estar registrado y conectado para ver este vínculo]

Capturas



Trailer

Info
CALIDAD DE VIDEO: WEB-DL m1080p MPEG4 Video (H264) 1920×1036
CALIDAD DE AUDIO 1: Castellano AC3 5.1 448 Kbps
CALIDAD DE AUDIO 2: Inglés AC3 5.1 448 Kbps
SUBTITULOS: Incluye completos en español e inglés y forzados en español.
TAMAÑO: 4.20 GiB
Mediainfo:
Format                      : Matroska
Format version              : Version 4 / Version 2
File size                   : 4.20 GiB
Duration                    : 1 h 56 min
Overall bit rate            : 5 150 kb/s
Movie name                  : La peor semana - [Tienes que estar registrado y conectado para ver este vínculo]
Encoded date                : UTC 2018-05-01 21:25:48
Writing application         : mkvmerge v22.0.0 ('At The End Of The World') 64-bit
Writing library             : libebml v1.3.5 + libmatroska v1.4.8


Video
ID                          : 1
Format                      : AVC
Format/Info                 : Advanced Video Codec
Format profile              : High@L4.1
Format settings             : CABAC / 4 Ref Frames
Format settings, CABAC      : Yes
Format settings, RefFrames  : 4 frames
Codec ID                    : V_MPEG4/ISO/AVC
Duration                    : 1 h 56 min
Bit rate                    : 4 500 kb/s
Width                       : 1 920 pixels
Height                      : 1 036 pixels
Display aspect ratio        : 1.85:1
Frame rate mode             : Constant
Frame rate                  : 23.976 (24000/1001) FPS
Color space                 : YUV
Chroma subsampling          : 4:2:0
Bit depth                   : 8 bits
Scan type                   : Progressive
Bits/(Pixel*Frame)          : 0.094
Stream size                 : 3.52 GiB (84%)
Title                       : AVC
Writing library             : x264 core 148 r2708 86b7198
Encoding settings           : cabac=1 / ref=2 / deblock=1:0:0 / analyse=0x3:0x113 / me=hex / subme=6 / psy=1 / psy_rd=1.00:0.00 / mixed_ref=1 / me_range=16 / chroma_me=1 / trellis=1 / 8x8dct=1 / cqm=0 / deadzone=21,11 / fast_pskip=1 / chroma_qp_offset=-2 / threads=32 / lookahead_threads=5 / sliced_threads=0 / nr=0 / decimate=1 / interlaced=0 / bluray_compat=0 / constrained_intra=0 / bframes=3 / b_pyramid=2 / b_adapt=1 / b_bias=0 / direct=1 / weightb=1 / open_gop=0 / weightp=1 / keyint=240 / keyint_min=24 / scenecut=40 / intra_refresh=0 / rc_lookahead=30 / rc=abr / mbtree=1 / bitrate=4500 / ratetol=1.0 / qcomp=0.60 / qpmin=0 / qpmax=69 / qpstep=4 / vbv_maxrate=62500 / vbv_bufsize=78125 / nal_hrd=none / filler=0 / ip_ratio=1.40 / aq=1:1.00
Language                    : Spanish
Default                     : Yes
Forced                      : Yes
Color range                 : Limited
Color primaries             : BT.709
Transfer characteristics    : BT.709
Matrix coefficients         : BT.709


Audio [Tienes que estar registrado y conectado para ver este vínculo]
ID                          : 2
Format                      : AC-3
Format/Info                 : Audio Coding 3
Format settings, Endianness : Big
Codec ID                    : A_AC3
Duration                    : 1 h 56 min
Bit rate mode               : Constant
Bit rate                    : 448 kb/s
Channel(s)                  : 6 channels
Channel positions           : Front: L C R, Side: L R, LFE
Sampling rate               : 48.0 kHz
Frame rate                  : 31.250 FPS (1536 SPF)
Bit depth                   : 16 bits
Compression mode            : Lossy
Stream size                 : 374 MiB (9%)
Title                       : AC-3
Language                    : Spanish
Service kind                : Complete Main
Default                     : Yes
Forced                      : Yes


Audio [Tienes que estar registrado y conectado para ver este vínculo]
ID                          : 3
Format                      : AC-3
Format/Info                 : Audio Coding 3
Format settings, Endianness : Big
Codec ID                    : A_AC3
Duration                    : 1 h 56 min
Bit rate mode               : Constant
Bit rate                    : 384 kb/s
Channel(s)                  : 6 channels
Channel positions           : Front: L C R, Side: L R, LFE
Sampling rate               : 48.0 kHz
Frame rate                  : 31.250 FPS (1536 SPF)
Bit depth                   : 16 bits
Compression mode            : Lossy
Stream size                 : 321 MiB (7%)
Title                       : AC-3
Language                    : English
Service kind                : Complete Main
Default                     : No
Forced                      : No


Text [Tienes que estar registrado y conectado para ver este vínculo]
ID                          : 4
Format                      : UTF-8
Codec ID                    : S_TEXT/UTF8
Codec ID/Info               : UTF-8 Plain Text
Duration                    : 1 h 55 min
Bit rate                    : 68 b/s
Count of elements           : 1993
Stream size                 : 58.1 KiB (0%)
Title                       : Completos
Language                    : Spanish
Default                     : No
Forced                      : No


Text [Tienes que estar registrado y conectado para ver este vínculo]
ID                          : 5
Format                      : UTF-8
Codec ID                    : S_TEXT/UTF8
Codec ID/Info               : UTF-8 Plain Text
Duration                    : 1 h 52 min
Bit rate                    : 95 b/s
Count of elements           : 2180
Stream size                 : 78.9 KiB (0%)
Title                       : Completos
Language                    : English
Default                     : No
Forced                      : No


Enlaces Descarga
Tusfiles - Uptobox - 1fichier - Depositfiles - Rapidgator - Userscloud - Wayupload
En algunos servidores (Tusfiles, Userscloud...) es necesario estar registrado para descargar a mayor velocidad.


Enlaces Online
Rapidvideo - Openload - Vidoza - Streamango - Vidlox
Para ver online en Userscloud necesitas estar registrado en su página y usar el navegador Google Chrome


Reproductor



NOTA: Por favor, si los enlaces están caidos avisa en un comentario para poder resubirlos. Gracias

______________________________________________________
[Tienes que estar registrado y conectado para ver este vínculo]
Saludos  Smile
Volver arriba
Permisos de este foro:
No puedes responder a temas en este foro.