Comparte
Ir abajo
avatar
Admin
Administrador
Administrador
Sexo : Masculino
Mensajes : 2217
Puntos : 6759
Reputación : 1322
Fecha de inscripción : 02/04/2012
Localización : España

Comedia Que baje Dios y lo vea (2018) [Ver + Descargar] [HD 1080p] [Castellano] [Comedia]

el Jue 3 Mayo 2018 - 22:22
Reputación del mensaje :100% (1 voto)

Ficha Técnica
SINOPSIS: Narra la historia de un monasterio en quiebra, cuya única oportunidad de salvación está en ganar la “Champions Clerum”, un torneo de fútbol europeo sólo para religiosos. El problema es que en esa congregación no juega al fútbol “ni Dios”, y este inesperado equipo necesitará algo más que la bendición del Arzobispo de la diócesis para salvar su casa.
TÍTULO ORIGINAL: Que baje Dios y lo vea
AÑO: [Tienes que estar registrado y conectado para ver este vínculo]
DURACIÓN: 95 min.
PAÍS: España
DIRECTOR: Curro Velázquez
REPARTO: Karra Elejalde, Alain Hernández, J.M. Montilla “El Langui”, Macarena García, Fernando Valverde, Joel Bosqued, Francisco Rueda, Txema Blasco, Paco Sagarzazu, Guillermo Furiase, Joaquín Núñez, Antonio Durán, Julián Valcárcel, Alberto Bang, Gonzalo de Santiago, Enrico Vecchi, Bruno Squarcia, Chiqui Maya, Javier Losán
GÉNERO: [Tienes que estar registrado y conectado para ver este vínculo] | [Tienes que estar registrado y conectado para ver este vínculo] [Tienes que estar registrado y conectado para ver este vínculo]

Capturas



Trailer

Info
CALIDAD DE VIDEO: WEB-DL m1080p MPEG4 Video (H264) 1920×804
CALIDAD DE AUDIO: Castellano AC3 5.1 448 Kbps
TAMAÑO: 3.83 GiB
Mediainfo:
Format : Matroska
Format version : Version 4 / Version 2
File size : 3.83 GiB
Duration : 1 h 35 min
Overall bit rate : 5 748 kb/s
Movie name : Que baje Dios y lo vea - [Tienes que estar registrado y conectado para ver este vínculo]
Encoded date : UTC 2018-05-02 15:36:08
Writing application : mkvmerge v22.0.0 ('At The End Of The World') 64-bit
Writing library : libebml v1.3.5 + libmatroska v1.4.8


Video
ID : 1
Format : AVC
Format/Info : Advanced Video Codec
Format profile : High@L4.1
Format settings : CABAC / 5 Ref Frames
Format settings, CABAC : Yes
Format settings, RefFrames : 5 frames
Codec ID : V_MPEG4/ISO/AVC
Duration : 1 h 35 min
Bit rate : 5 299 kb/s
Width : 1 920 pixels
Height : 804 pixels
Display aspect ratio : 2.40:1
Frame rate mode : Constant
Frame rate : 24.000 FPS
Color space : YUV
Chroma subsampling : 4:2:0
Bit depth : 8 bits
Scan type : Progressive
Bits/(Pixel*Frame) : 0.143
Stream size : 3.53 GiB (92%)
Title : AVC
Writing library : x264 core 155 r2901 7d0ff22
Encoding settings : cabac=1 / ref=5 / deblock=1:-3:-3 / analyse=0x3:0x113 / me=umh / subme=11 / psy=1 / psy_rd=1.10:0.00 / mixed_ref=1 / me_range=32 / chroma_me=1 / trellis=2 / 8x8dct=1 / cqm=0 / deadzone=21,11 / fast_pskip=0 / chroma_qp_offset=-2 / threads=25 / lookahead_threads=6 / sliced_threads=0 / nr=0 / decimate=1 / interlaced=0 / bluray_compat=0 / constrained_intra=0 / bframes=10 / b_pyramid=2 / b_adapt=2 / b_bias=0 / direct=1 / weightb=1 / open_gop=0 / weightp=2 / keyint=240 / keyint_min=24 / scenecut=40 / intra_refresh=0 / rc_lookahead=70 / rc=crf / mbtree=1 / crf=18.0 / qcomp=0.80 / qpmin=0 / qpmax=69 / qpstep=4 / vbv_maxrate=62500 / vbv_bufsize=78125 / crf_max=0.0 / nal_hrd=none / filler=0 / ip_ratio=1.40 / aq=2:1.10
Language : Spanish
Default : Yes
Forced : Yes


Audio
ID : 2
Format : AC-3
Format/Info : Audio Coding 3
Format settings, Endianness : Big
Codec ID : A_AC3
Duration : 1 h 35 min
Bit rate mode : Constant
Bit rate : 448 kb/s
Channel(s) : 6 channels
Channel positions : Front: L C R, Side: L R, LFE
Sampling rate : 48.0 kHz
Frame rate : 31.250 FPS (1536 SPF)
Bit depth : 16 bits
Compression mode : Lossy
Stream size : 306 MiB (8%)
Title : AC-3
Language : Spanish
Service kind : Complete Main
Default : Yes
Forced : Yes


Enlaces Descarga
Tusfiles - Uptobox - 1fichier - Depositfiles - Hitfile - Tusfiles - Userscloud - Wayupload
En algunos servidores (Tusfiles, Userscloud...) es necesario estar registrado para descargar a mayor velocidad.


Enlaces Online
Rapidvideo - Openload - Vidoza - Streamango - Vidlox - Userscloud
Para ver online en Userscloud necesitas estar registrado en su página y usar el navegador Google Chrome


Reproductor



NOTA: Por favor, si los enlaces están caidos avisa en un comentario para poder resubirlos. Gracias

______________________________________________________
[Tienes que estar registrado y conectado para ver este vínculo]
Saludos  Smile
paralta
Nuevo Flipax
Nuevo Flipax
Sexo : Masculino
Mensajes : 1
Puntos : 2
Reputación : 1
Fecha de inscripción : 04/05/2018

Comedia Re: Que baje Dios y lo vea (2018) [Ver + Descargar] [HD 1080p] [Castellano] [Comedia]

el Vie 4 Mayo 2018 - 14:08
Reputación del mensaje :100% (1 voto)
Muchas gracias!
avatar
Admin
Administrador
Administrador
Sexo : Masculino
Mensajes : 2217
Puntos : 6759
Reputación : 1322
Fecha de inscripción : 02/04/2012
Localización : España

Comedia Re: Que baje Dios y lo vea (2018) [Ver + Descargar] [HD 1080p] [Castellano] [Comedia]

el Vie 4 Mayo 2018 - 16:22
Hola [Tienes que estar registrado y conectado para ver este vínculo]

Gracias a ti por la visita 👍

______________________________________________________
[Tienes que estar registrado y conectado para ver este vínculo]
Saludos  Smile
Volver arriba
Permisos de este foro:
No puedes responder a temas en este foro.