Comparte
Ir abajo
avatar
Admin
Administrador
Administrador
Sexo : Masculino
Mensajes : 975
Puntos : 3407
Reputación : 849
Fecha de inscripción : 02/04/2012
Localización : España

Thriller Doble traición (2018) [Ver Online] [Descargar] [HD 1080p] [Spanish-English] [Thriller]

el Vie 4 Mayo 2018 - 22:08
Reputación del mensaje :100% (1 voto)

Ficha Técnica
SINOPSIS: Michael consigue el trabajo de sus sueños: el de coordinador del programa Oil for Food de las Naciones Unidas. Pronto comenzará a darse cuenta de que la única persona en la que puede confiar es en su jefe, un diplomático experimentado. Hasta que en medio de la lucha contra los países que, como tiburones, buscan el petróleo de un Irak en plena posguerra, descubrirá una enorme conspiración a los más altos niveles.
TÍTULO ORIGINAL: Backstabbing for Beginners
AÑO: [Tienes que estar registrado y conectado para ver este vínculo]
DURACIÓN: 108 min.
PAÍS: Dinamarca
DIRECTOR: Per Fly
REPARTO: Theo James, Ben Kingsley, Belçim Bilgin, Jacqueline Bisset, Rachel Wilson, Rossif Sutherland, Shauna MacDonald, Brian Markinson, Daniela Lavender, Peshang Rad, Mishu Vellani, Carlos Pinder, Fabio Lusvarghi, Zahir Gilani, Hattie Kragten, Aidan Devine, Dwight Ireland, Elena Khan, Alex Hatz
GÉNERO: [Tienes que estar registrado y conectado para ver este vínculo] | Basado en hechos reales

Capturas



Trailer

Info
CALIDAD DE VIDEO: BDRip m1080p MPEG4 Video (H264) 1920x804
CALIDAD DE AUDIO 1: Castellano AC3 5.1 448 Kbps
CALIDAD DE AUDIO 2: Inglés AC3 5.1 448 Kbps
SUBTITULOS: Incluye completos en español e inglés y forzados en español.
TAMAÑO: 4.71 GiB
Mediainfo:
Format : Matroska
Format version : Version 4 / Version 2
File size : 4.72 GiB
Duration : 1 h 48 min
Overall bit rate : 6 232 kb/s
Movie name : Doble traición - [Tienes que estar registrado y conectado para ver este vínculo]
Encoded date : UTC 2018-05-03 14:45:51
Writing application : mkvmerge v22.0.0 ('At The End Of The World') 64-bit
Writing library : libebml v1.3.5 + libmatroska v1.4.8


Video
ID : 1
Format : AVC
Format/Info : Advanced Video Codec
Format profile : High@L4.1
Format settings : CABAC / 5 Ref Frames
Format settings, CABAC : Yes
Format settings, RefFrames : 5 frames
Codec ID : V_MPEG4/ISO/AVC
Duration : 1 h 48 min
Bit rate : 5 334 kb/s
Width : 1 920 pixels
Height : 804 pixels
Display aspect ratio : 2.40:1
Frame rate mode : Constant
Frame rate : 23.976 (24000/1001) FPS
Color space : YUV
Chroma subsampling : 4:2:0
Bit depth : 8 bits
Scan type : Progressive
Bits/(Pixel*Frame) : 0.144
Stream size : 4.04 GiB (86%)
Title : AVC
Writing library : x264 core 155 r2901 7d0ff22
Encoding settings : cabac=1 / ref=5 / deblock=1:-3:-3 / analyse=0x3:0x113 / me=umh / subme=11 / psy=1 / psy_rd=1.10:0.00 / mixed_ref=1 / me_range=48 / chroma_me=1 / trellis=2 / 8x8dct=1 / cqm=0 / deadzone=21,11 / fast_pskip=0 / chroma_qp_offset=-2 / threads=25 / lookahead_threads=6 / sliced_threads=0 / nr=0 / decimate=1 / interlaced=0 / bluray_compat=0 / constrained_intra=0 / bframes=10 / b_pyramid=2 / b_adapt=2 / b_bias=0 / direct=1 / weightb=1 / open_gop=0 / weightp=2 / keyint=240 / keyint_min=23 / scenecut=40 / intra_refresh=0 / rc_lookahead=70 / rc=crf / mbtree=1 / crf=19.0 / qcomp=0.80 / qpmin=0 / qpmax=69 / qpstep=4 / vbv_maxrate=62500 / vbv_bufsize=78125 / crf_max=0.0 / nal_hrd=none / filler=0 / ip_ratio=1.40 / aq=2:1.10
Language : Spanish
Default : Yes
Forced : Yes


Audio [Tienes que estar registrado y conectado para ver este vínculo]
ID : 2
Format : AC-3
Format/Info : Audio Coding 3
Format settings, Endianness : Big
Codec ID : A_AC3
Duration : 1 h 48 min
Bit rate mode : Constant
Bit rate : 448 kb/s
Channel(s) : 6 channels
Channel positions : Front: L C R, Side: L R, LFE
Sampling rate : 48.0 kHz
Frame rate : 31.250 FPS (1536 SPF)
Bit depth : 16 bits
Compression mode : Lossy
Stream size : 347 MiB (7%)
Title : AC-3
Language : Spanish
Service kind : Complete Main
Default : Yes
Forced : Yes


Audio [Tienes que estar registrado y conectado para ver este vínculo]
ID : 3
Format : AC-3
Format/Info : Audio Coding 3
Format settings, Endianness : Big
Codec ID : A_AC3
Duration : 1 h 48 min
Bit rate mode : Constant
Bit rate : 448 kb/s
Channel(s) : 6 channels
Channel positions : Front: L C R, Side: L R, LFE
Sampling rate : 48.0 kHz
Frame rate : 31.250 FPS (1536 SPF)
Bit depth : 16 bits
Compression mode : Lossy
Stream size : 347 MiB (7%)
Title : AC-3
Language : English
Service kind : Complete Main
Default : No
Forced : No


Text [Tienes que estar registrado y conectado para ver este vínculo]
ID : 4
Format : UTF-8
Codec ID : S_TEXT/UTF8
Codec ID/Info : UTF-8 Plain Text
Duration : 1 h 34 min
Bit rate : 1 b/s
Count of elements : 47
Stream size : 1.37 KiB (0%)
Title : Forzados
Language : Spanish
Default : Yes
Forced : Yes


Text [Tienes que estar registrado y conectado para ver este vínculo]
ID : 5
Format : UTF-8
Codec ID : S_TEXT/UTF8
Codec ID/Info : UTF-8 Plain Text
Duration : 1 h 37 min
Bit rate : 66 b/s
Count of elements : 1395
Stream size : 47.4 KiB (0%)
Title : Completos
Language : Spanish
Default : No
Forced : No


Text [Tienes que estar registrado y conectado para ver este vínculo]
ID : 6
Format : UTF-8
Codec ID : S_TEXT/UTF8
Codec ID/Info : UTF-8 Plain Text
Duration : 1 h 40 min
Bit rate : 63 b/s
Count of elements : 1649
Stream size : 46.9 KiB (0%)
Title : Completos
Language : English
Default : No
Forced : No


Menu
00:00:00.000 : en:Chapter 01
00:06:17.835 : en:Chapter 02
00:13:56.460 : en:Chapter 03
00:20:28.894 : en:Chapter 04
00:26:47.355 : en:Chapter 05
00:34:13.384 : en:Chapter 06
00:39:15.853 : en:Chapter 07
00:47:05.072 : en:Chapter 08
00:55:11.975 : en:Chapter 09
01:01:09.040 : en:Chapter 10
01:08:02.203 : en:Chapter 11
01:13:20.437 : en:Chapter 12
01:20:43.296 : en:Chapter 13
01:28:12.453 : en:Chapter 14
01:34:46.013 : en:Chapter 15
01:39:05.731 : en:Chapter 16


Enlaces Descarga
[Tienes que estar registrado y conectado para ver este vínculo] - [Tienes que estar registrado y conectado para ver este vínculo] - [Tienes que estar registrado y conectado para ver este vínculo] - [Tienes que estar registrado y conectado para ver este vínculo] - [Tienes que estar registrado y conectado para ver este vínculo] - [Tienes que estar registrado y conectado para ver este vínculo] - [Tienes que estar registrado y conectado para ver este vínculo]
En algunos servidores (Tusfiles, Userscloud...) es necesario estar registrado para descargar a mayor velocidad.


Enlaces Online
[Tienes que estar registrado y conectado para ver este vínculo] - [Tienes que estar registrado y conectado para ver este vínculo] - [Tienes que estar registrado y conectado para ver este vínculo] - [Tienes que estar registrado y conectado para ver este vínculo] - [Tienes que estar registrado y conectado para ver este vínculo] - [Tienes que estar registrado y conectado para ver este vínculo]
Para ver online en Userscloud necesitas estar registrado en su página y usar el navegador [Tienes que estar registrado y conectado para ver este vínculo]


Reproductor



NOTA: Por favor, si los enlaces están caidos avisa en un comentario para poder resubirlos. Gracias

______________________________________________________
Saludos  Smile
Volver arriba
Permisos de este foro:
No puedes responder a temas en este foro.