Comparte
Ir abajo
avatar
Admin
Administrador
Administrador
Sexo : Masculino
Mensajes : 1897
Puntos : 5823
Reputación : 1224
Fecha de inscripción : 02/04/2012
Localización : España

Comedia Thi Mai, rumbo a Vietnam (2018) [Ver + Descargar] [HD 1080p] [Castellano] [Comedia]

el Sáb 5 Mayo 2018 - 8:59
Reputación del mensaje :100% (1 voto)

Ficha Técnica
SINOPSIS: Narra la odisea de Carmen, una mujer que tras perder a su hija en un accidente, recibe una carta que le anuncia que se le ha concedido a su hija la adopción de la niña vietnamita que solicitó. Acompañada de sus dos mejores amigas, Elvira y Rosa, que nunca han salido de España, viajarán hasta Vietnam para encontrarse con la cría y con situaciones complicadas, exóticas y rocambolescas, que sacarán a la luz los aspectos más peculiares de sus distintas personalidades. Andrés, un actor español que ha ido hasta Hanoi para vivir con su pareja, y un guía turístico nativo, formarán parte también de la aventura.
TÍTULO ORIGINAL: Thi Mai, rumbo a Vietnam
AÑO: [Tienes que estar registrado y conectado para ver este vínculo]
DURACIÓN: 90 min.
PAÍS: España
DIRECTOR: Patricia Ferreira
REPARTO: Carmen Machi, Adriana Ozores, Aitana Sánchez-Gijón, Dani Rovira, Pedro Casablanc, Eric Nguyen, Alberto Jo Lee, Pedro Miguel Martínez
GÉNERO: [Tienes que estar registrado y conectado para ver este vínculo] [Tienes que estar registrado y conectado para ver este vínculo] | [Tienes que estar registrado y conectado para ver este vínculo]

Capturas



Trailer

Info
CALIDAD DE VIDEO: WEB-DL m1080p MPEG4 Video (H264) 1920×804
CALIDAD DE AUDIO: Castellano AC3 5.1 448 Kbps
SUBTITULOS: Incluye forzados en español.
TAMAÑO: 4.10 GiB
Mediainfo:
Format : Matroska
Format version : Version 4 / Version 2
File size : 4.10 GiB
Duration : 1 h 39 min
Overall bit rate mode : Variable
Overall bit rate : 5 906 kb/s
Movie name : Thi Mai, rumbo a Vietnam - [Tienes que estar registrado y conectado para ver este vínculo]
Encoded date : UTC 2018-05-04 14:55:18
Writing application : mkvmerge v22.0.0 ('At The End Of The World') 64-bit
Writing library : libebml v1.3.5 + libmatroska v1.4.8


Video
ID : 1
Format : AVC
Format/Info : Advanced Video Codec
Format profile : High@L4.1
Format settings : CABAC / 2 Ref Frames
Format settings, CABAC : Yes
Format settings, RefFrames : 2 frames
Format settings, GOP : M=3, N=24
Codec ID : V_MPEG4/ISO/AVC
Duration : 1 h 39 min
Bit rate mode : Variable
Bit rate : 5 456 kb/s
Maximum bit rate : 8 226 kb/s
Width : 1 920 pixels
Height : 804 pixels
Display aspect ratio : 2.40:1
Frame rate mode : Constant
Frame rate : 24.000 FPS
Color space : YUV
Chroma subsampling : 4:2:0
Bit depth : 8 bits
Scan type : Progressive
Bits/(Pixel*Frame) : 0.147
Stream size : 3.79 GiB (92%)
Title : AVC
Language : Spanish
Default : Yes
Forced : Yes


Audio
ID : 2
Format : AC-3
Format/Info : Audio Coding 3
Format settings, Endianness : Big
Codec ID : A_AC3
Duration : 1 h 39 min
Bit rate mode : Constant
Bit rate : 448 kb/s
Channel(s) : 6 channels
Channel positions : Front: L C R, Side: L R, LFE
Sampling rate : 48.0 kHz
Frame rate : 31.250 FPS (1536 SPF)
Bit depth : 16 bits
Compression mode : Lossy
Stream size : 318 MiB (8%)
Title : AC-3
Language : Spanish
Service kind : Complete Main
Default : Yes
Forced : Yes


Enlaces Descarga
Tusfiles - Uptobox - 1fichier - Depositfiles - Userscloud - Wayupload
En algunos servidores (Tusfiles, Userscloud...) es necesario estar registrado para descargar a mayor velocidad.


Enlaces Online
Rapidvideo - Openload - Vidoza - Streamango - Vidlox - Userscloud
Para ver online en Userscloud necesitas estar registrado en su página y usar el navegador Google Chrome


Reproductor



NOTA: Por favor, si los enlaces están caidos avisa en un comentario para poder resubirlos. Gracias

______________________________________________________
[Tienes que estar registrado y conectado para ver este vínculo]
Saludos  Smile
Volver arriba
Permisos de este foro:
No puedes responder a temas en este foro.