Comparte
Ir abajo
avatar
Admin
Administrador
Administrador
Sexo : Masculino
Mensajes : 1897
Puntos : 5823
Reputación : 1224
Fecha de inscripción : 02/04/2012
Localización : España

Thriller Proud Mary (2018) [Ver Online] [Descargar] [HD 1080p] [Spanish - English] [Thriller]

el Jue 10 Mayo 2018 - 22:11
Reputación del mensaje :100% (1 voto)

Ficha Técnica
SINOPSIS: La vida de Mary (Taraji P. Henson) , una asesina a suelto de la mafia de Boston, da un vuelco inesperado cuando conoce a un niño que despierta el instinto maternal que creía perdido.
TÍTULO ORIGINAL: Proud Mary
AÑO: [Tienes que estar registrado y conectado para ver este vínculo]
DURACIÓN: 89 min.
PAÍS: Estados Unidos
DIRECTOR: Babak Najafi
REPARTO: Taraji P. Henson, Neal McDonough, Danny Glover, Xander Berkeley, Billy Brown, Margaret Avery, Jahi Di'Allo Winston, Alex Ziwak, Owen Burke, David Chen, Jose Guns Alves, Arthur Hiou, Jim Ford, Joseph Oliveira, Adrian M. Mompoint, Jeffery Kincannon, Rob Lévesque, Therese Plaehn, Marinko Radakovic
GÉNERO: [Tienes que estar registrado y conectado para ver este vínculo] | [Tienes que estar registrado y conectado para ver este vínculo]

Capturas



Trailer

Info
CALIDAD DE VIDEO: BDRip m1080p MPEG4 Video (H264) 1920x1080
CALIDAD DE AUDIO 1: Castellano DTS 5.1 1509 Kbps
CALIDAD DE AUDIO 2: Castellano AC-3 5.1 448 Kbps
CALIDAD DE AUDIO 3: Inglés AC-3 5.1 448 Kbps
SUBTITULOS: Incluye completos en español e inglés y forzados en español.
TAMAÑO: 5.09 GiB
Mediainfo:
Format : Matroska
Format version : Version 4 / Version 2
File size : 5.09 GiB
Duration : 1 h 29 min
Overall bit rate : 8 180 kb/s
Movie name : Proud Mary - [Tienes que estar registrado y conectado para ver este vínculo]
Encoded date : UTC 2018-05-06 11:30:31
Writing application : mkvmerge v22.0.0 ('At The End Of The World') 64-bit
Writing library : libebml v1.3.5 + libmatroska v1.4.8


Video
ID : 1
Format : AVC
Format/Info : Advanced Video Codec
Format profile : High@L4
Format settings : CABAC / 4 Ref Frames
Format settings, CABAC : Yes
Format settings, RefFrames : 4 frames
Codec ID : V_MPEG4/ISO/AVC
Duration : 1 h 29 min
Bit rate : 5 760 kb/s
Width : 1 920 pixels
Height : 1 080 pixels
Display aspect ratio : 16:9
Frame rate mode : Constant
Frame rate : 23.976 (24000/1001) FPS
Color space : YUV
Chroma subsampling : 4:2:0
Bit depth : 8 bits
Scan type : Progressive
Bits/(Pixel*Frame) : 0.116
Stream size : 3.58 GiB (70%)
Title : AVC
Writing library : x264 core 155 r2893 b00bcaf
Encoding settings : cabac=1 / ref=4 / deblock=1:-3:-3 / analyse=0x3:0x133 / me=umh / subme=9 / psy=1 / psy_rd=1.10:0.25 / mixed_ref=1 / me_range=32 / chroma_me=1 / trellis=2 / 8x8dct=1 / cqm=0 / deadzone=6,6 / fast_pskip=1 / chroma_qp_offset=-4 / threads=18 / lookahead_threads=2 / sliced_threads=0 / nr=0 / decimate=1 / interlaced=0 / bluray_compat=0 / constrained_intra=0 / bframes=6 / b_pyramid=2 / b_adapt=2 / b_bias=0 / direct=3 / weightb=1 / open_gop=0 / weightp=2 / keyint=240 / keyint_min=24 / scenecut=40 / intra_refresh=0 / rc_lookahead=40 / rc=2pass / mbtree=1 / bitrate=5760 / ratetol=1.0 / qcomp=0.60 / qpmin=0 / qpmax=69 / qpstep=4 / cplxblur=20.0 / qblur=0.5 / vbv_maxrate=20000 / vbv_bufsize=25000 / nal_hrd=none / filler=0 / ip_ratio=1.40 / aq=1:1.00
Language : Spanish
Default : Yes
Forced : Yes
Color range : Limited
Color primaries : BT.709
Transfer characteristics : BT.709
Matrix coefficients : BT.709


Audio [Tienes que estar registrado y conectado para ver este vínculo]
ID : 2
Format : DTS
Format/Info : Digital Theater Systems
Mode : 16
Format settings, Endianness : Big
Codec ID : A_DTS
Duration : 1 h 29 min
Bit rate mode : Constant
Bit rate : 1 509 kb/s
Channel(s) : 6 channels
Channel positions : Front: L C R, Side: L R, LFE
Sampling rate : 48.0 kHz
Frame rate : 93.750 FPS (512 SPF)
Bit depth : 16 bits
Compression mode : Lossy
Delay relative to video : -5 ms
Stream size : 961 MiB (18%)
Title : DTS
Language : Spanish
Default : No
Forced : No


Audio [Tienes que estar registrado y conectado para ver este vínculo]
ID : 3
Format : AC-3
Format/Info : Audio Coding 3
Format settings, Endianness : Big
Codec ID : A_AC3
Duration : 1 h 29 min
Bit rate mode : Constant
Bit rate : 448 kb/s
Channel(s) : 6 channels
Channel positions : Front: L C R, Side: L R, LFE
Sampling rate : 48.0 kHz
Frame rate : 31.250 FPS (1536 SPF)
Bit depth : 16 bits
Compression mode : Lossy
Delay relative to video : -5 ms
Stream size : 285 MiB (5%)
Title : AC-3
Language : Spanish
Service kind : Complete Main
Default : Yes
Forced : Yes


Audio [Tienes que estar registrado y conectado para ver este vínculo]
ID : 4
Format : AC-3
Format/Info : Audio Coding 3
Format settings, Endianness : Big
Codec ID : A_AC3
Duration : 1 h 29 min
Bit rate mode : Constant
Bit rate : 448 kb/s
Channel(s) : 6 channels
Channel positions : Front: L C R, Side: L R, LFE
Sampling rate : 48.0 kHz
Frame rate : 31.250 FPS (1536 SPF)
Bit depth : 16 bits
Compression mode : Lossy
Delay relative to video : -5 ms
Stream size : 285 MiB (5%)
Title : AC-3
Language : English
Service kind : Complete Main
Default : No
Forced : No


Text [Tienes que estar registrado y conectado para ver este vínculo]
ID : 5
Format : UTF-8
Codec ID : S_TEXT/UTF8
Codec ID/Info : UTF-8 Plain Text
Duration : 20 min 19 s
Bit rate : 0 b/s
Count of elements : 2
Stream size : 57.0 Bytes (0%)
Title : Forzados
Language : Spanish
Default : Yes
Forced : Yes


Text [Tienes que estar registrado y conectado para ver este vínculo]
ID : 6
Format : UTF-8
Codec ID : S_TEXT/UTF8
Codec ID/Info : UTF-8 Plain Text
Duration : 1 h 21 min
Bit rate : 41 b/s
Count of elements : 854
Stream size : 24.9 KiB (0%)
Title : Completos
Language : Spanish
Default : No
Forced : No


Text [Tienes que estar registrado y conectado para ver este vínculo]
ID : 7
Format : PGS
Muxing mode : zlib
Codec ID : S_HDMV/PGS
Codec ID/Info : Picture based subtitle format used on BDs/HD-DVDs
Duration : 1 h 26 min
Bit rate : 24.4 kb/s
Count of elements : 1825
Stream size : 15.1 MiB (0%)
Title : Completos
Language : Spanish
Default : No
Forced : No


Text [Tienes que estar registrado y conectado para ver este vínculo]
ID : 8
Format : UTF-8
Codec ID : S_TEXT/UTF8
Codec ID/Info : UTF-8 Plain Text
Duration : 1 h 27 min
Bit rate : 56 b/s
Count of elements : 1163
Stream size : 36.3 KiB (0%)
Title : Completos
Language : English
Default : No
Forced : No


Menu
00:00:00.000 : :Chapter 1
00:03:22.661 : :Chapter 2
00:09:20.268 : :Chapter 3
00:15:58.374 : :Chapter 4
00:22:10.246 : :Chapter 5
00:28:13.734 : :Chapter 6
00:33:54.199 : :Chapter 7
00:37:56.357 : :Chapter 8
00:45:15.254 : :Chapter 9
00:50:40.287 : :Chapter 10
00:55:58.188 : :Chapter 11
00:59:59.262 : :Chapter 12
01:05:13.201 : :Chapter 13
01:10:28.725 : :Chapter 14
01:15:46.542 : :Chapter 15
01:20:09.346 : :Chapter 16


Enlaces Descarga
Tusfiles - Uptobox - 1fichier - Depositfiles - Userscloud - Wayupload
En algunos servidores (Tusfiles, Userscloud...) es necesario estar registrado para descargar a mayor velocidad.


Enlaces Online
Rapidvideo - Openload - Vidoza - Streamango - Vidlox - Userscloud
Para ver online en Userscloud necesitas estar registrado en su página y usar el navegador Google Chrome


Reproductor



NOTA: Por favor, si los enlaces están caidos avisa en un comentario para poder resubirlos. Gracias

______________________________________________________
[Tienes que estar registrado y conectado para ver este vínculo]
Saludos  Smile
Volver arriba
Permisos de este foro:
No puedes responder a temas en este foro.