Comparte
Ir abajo
avatar
Admin
Administrador
Administrador
Sexo : Masculino
Mensajes : 1330
Puntos : 4344
Reputación : 1050
Fecha de inscripción : 02/04/2012
Localización : España

Thriller El extranjero (2017) [Ver Online] [Descargar] [HD 1080p] [Spanish-English] [Thriller]

el Dom 13 Mayo 2018 - 0:48
Reputación del mensaje :100% (3 votos)

Ficha Técnica
SINOPSIS: La historia de un humilde hombre de negocios, Quan (Jackie Chan), cuyo pasado erupciona en una venganza desenfrenada después de que su hija muera en un atentado terrorista motivado por aspectos políticos. En su búsqueda de los terroristas, Quan se ve atrapado en un juego del gato y el ratón con un político irlandés que colabora con el gobierno británico (Pierce Brosnan), cuyo pasado podría tener algo que ver con los asesinos.
TÍTULO ORIGINAL: The Foreigner
AÑO: [Tienes que estar registrado y conectado para ver este vínculo]
DURACIÓN: 114 min.
PAÍS: Reino Unido
DIRECTOR: Martin Campbell
REPARTO: Jackie Chan,  Pierce Brosnan,  Charlie Murphy,  Katie Leung,  Rory Fleck-Byrne, Dermot Crowley,  Shina Shihoko Nagai,  Simon Kunz,  Jorge Leon Martinez, Lasco Atkins,  Dilyana Bouklieva,  Roberta Taylor,  Dino Fazzani,  Lee Nicholas Harris, Branwell Donaghey,  Stephen Hogan
GÉNERO: [Tienes que estar registrado y conectado para ver este vínculo] [Tienes que estar registrado y conectado para ver este vínculo] | IRA. [Tienes que estar registrado y conectado para ver este vínculo] [Tienes que estar registrado y conectado para ver este vínculo]

Capturas



Trailer

Info
CALIDAD DE VIDEO: BDRip m1080p MPEG4 Video (H264) 1920x804
CALIDAD DE AUDIO 2: Castellano AC-3 5.1 448 Kbps
CALIDAD DE AUDIO 3: Inglés AC-3 5.1 448 Kbps
SUBTITULOS: Incluye completos en español e inglés y forzados en español.
TAMAÑO: 4.71 GiB
Mediainfo:
Format                      : Matroska
Format version              : Version 4 / Version 2
File size                   : 4.71 GiB
Duration                    : 1 h 53 min
Overall bit rate            : 5 927 kb/s
Movie name                  : El Extranjero - [Tienes que estar registrado y conectado para ver este vínculo]
Encoded date                : UTC 2018-05-11 19:04:42
Writing application         : mkvmerge v23.0.0 ('The Bride Said No') 64-bit
Writing library             : libebml v1.3.6 + libmatroska v1.4.9


Video
ID                          : 1
Format                      : AVC
Format/Info                 : Advanced Video Codec
Format profile              : High@L4.1
Format settings             : CABAC / 5 Ref Frames
Format settings, CABAC      : Yes
Format settings, RefFrames  : 5 frames
Codec ID                    : V_MPEG4/ISO/AVC
Duration                    : 1 h 53 min
Bit rate                    : 5 041 kb/s
Width                       : 1 920 pixels
Height                      : 804 pixels
Display aspect ratio        : 2.40:1
Frame rate mode             : Constant
Frame rate                  : 23.976 (24000/1001) FPS
Color space                 : YUV
Chroma subsampling          : 4:2:0
Bit depth                   : 8 bits
Scan type                   : Progressive
Bits/(Pixel*Frame)          : 0.136
Stream size                 : 4.00 GiB (85%)
Title                       : AVC
Writing library             : x264 core 146 r2538 121396c
Encoding settings           : cabac=1 / ref=5 / deblock=1:-2:-2 / analyse=0x3:0x113 / me=umh / subme=10 / psy=1 / psy_rd=1.00:0.00 / mixed_ref=1 / me_range=32 / chroma_me=1 / trellis=2 / 8x8dct=1 / cqm=0 / deadzone=21,11 / fast_pskip=0 / chroma_qp_offset=-2 / threads=3 / lookahead_threads=1 / sliced_threads=0 / nr=0 / decimate=1 / interlaced=0 / bluray_compat=0 / constrained_intra=0 / bframes=8 / b_pyramid=2 / b_adapt=2 / b_bias=0 / direct=3 / weightb=1 / open_gop=0 / weightp=2 / keyint=250 / keyint_min=23 / scenecut=40 / intra_refresh=0 / rc=2pass / mbtree=0 / bitrate=5041 / ratetol=1.0 / qcomp=0.60 / qpmin=0 / qpmax=69 / qpstep=4 / cplxblur=20.0 / qblur=0.5 / ip_ratio=1.40 / pb_ratio=1.30 / aq=2:1.00
Language                    : English
Default                     : Yes
Forced                      : Yes


Audio [Tienes que estar registrado y conectado para ver este vínculo]
ID                          : 2
Format                      : AC-3
Format/Info                 : Audio Coding 3
Format settings, Endianness : Big
Codec ID                    : A_AC3
Duration                    : 1 h 53 min
Bit rate mode               : Constant
Bit rate                    : 448 kb/s
Channel(s)                  : 6 channels
Channel positions           : Front: L C R, Side: L R, LFE
Sampling rate               : 48.0 kHz
Frame rate                  : 31.250 FPS (1536 SPF)
Bit depth                   : 16 bits
Compression mode            : Lossy
Stream size                 : 365 MiB (8%)
Title                       : AC-3
Language                    : Spanish
Service kind                : Complete Main
Default                     : Yes
Forced                      : Yes


Audio [Tienes que estar registrado y conectado para ver este vínculo]
ID                          : 3
Format                      : AC-3
Format/Info                 : Audio Coding 3
Format settings, Endianness : Big
Codec ID                    : A_AC3
Duration                    : 1 h 53 min
Bit rate mode               : Constant
Bit rate                    : 448 kb/s
Channel(s)                  : 6 channels
Channel positions           : Front: L C R, Side: L R, LFE
Sampling rate               : 48.0 kHz
Frame rate                  : 31.250 FPS (1536 SPF)
Bit depth                   : 16 bits
Compression mode            : Lossy
Stream size                 : 365 MiB (8%)
Title                       : AC-3
Language                    : English
Service kind                : Complete Main
Default                     : No
Forced                      : No


Text [Tienes que estar registrado y conectado para ver este vínculo]
ID                          : 4
Format                      : UTF-8
Codec ID                    : S_TEXT/UTF8
Codec ID/Info               : UTF-8 Plain Text
Duration                    : 1 h 46 min
Bit rate                    : 0 b/s
Count of elements           : 27
Stream size                 : 735 Bytes (0%)
Title                       : Forzados
Language                    : Spanish
Default                     : Yes
Forced                      : Yes


Text [Tienes que estar registrado y conectado para ver este vínculo]
ID                          : 5
Format                      : UTF-8
Codec ID                    : S_TEXT/UTF8
Codec ID/Info               : UTF-8 Plain Text
Duration                    : 1 h 46 min
Bit rate                    : 47 b/s
Count of elements           : 1089
Stream size                 : 37.3 KiB (0%)
Title                       : Completos
Language                    : Spanish
Default                     : No
Forced                      : No


Text [Tienes que estar registrado y conectado para ver este vínculo]
ID                          : 6
Format                      : UTF-8
Codec ID                    : S_TEXT/UTF8
Codec ID/Info               : UTF-8 Plain Text
Duration                    : 1 h 44 min
Bit rate                    : 52 b/s
Count of elements           : 1212
Stream size                 : 40.3 KiB (0%)
Title                       : Completos
Language                    : English
Default                     : No
Forced                      : No


Menu
00:00:00.000                : :00:00:00.000
00:08:19.541                : :00:08:19.541
00:15:49.574                : :00:15:49.574
00:21:47.765                : :00:21:47.765
00:27:04.164                : :00:27:04.164
00:32:09.594                : :00:32:09.511
00:35:24.164                : :00:35:24.164
00:38:30.934                : :00:38:30.934
00:43:50.169                : :00:43:50.169
00:47:38.189                : :00:47:38.189
00:54:10.497                : :00:54:10.497
01:01:42.324                : :01:01:42.324
01:08:07.333                : :01:08:07.333
01:14:14.033                : :01:14:14.033
01:18:42.968                : :01:18:42.927
01:23:26.877                : :01:23:26.877
01:29:18.812                : :01:29:18.812
01:38:55.012                : :01:38:55.012
01:43:45.928                : :01:43:45.928
01:47:09.423                : :01:47:09.298


Enlaces Descarga
Tusfiles - Uptobox - 1fichier - Depositfiles - Filebebo - Rapidgator - Userscloud - Wayupload
En algunos servidores (Tusfiles, Userscloud...) es necesario estar registrado para descargar a mayor velocidad.


Enlaces Online
Rapidvideo - Openload - Vidoza - Streamango - Vidlox - Userscloud
Para ver online en Userscloud necesitas estar registrado en su página y usar el navegador Google Chrome


Reproductor



NOTA: Por favor, si los enlaces están caidos avisa en un comentario para poder resubirlos. Gracias

______________________________________________________
Saludos  Smile
Volver arriba
Permisos de este foro:
No puedes responder a temas en este foro.