Comparte
Ir abajo
avatar
Admin
Administrador
Administrador
Sexo : Masculino
Mensajes : 1900
Puntos : 5826
Reputación : 1224
Fecha de inscripción : 02/04/2012
Localización : España

Drama El joven Karl Marx (2017) [Ver + Descargar] [HD 1080p] [Spanish-German] [Drama]

el Miér 16 Mayo 2018 - 22:21
Reputación del mensaje :100% (1 voto)

Ficha Técnica
SINOPSIS: En el París de 1844, tras exiliarse, Karl Marx conoce a Friedrich Engels, quien investigaba el nacimiento de la clase obrera británica. Engels proporcionó la última pieza del puzle a la visión del mundo del joven Marx. Juntos, entre censuras, represión policial, revueltas y conflictos políticos, lideraron el movimiento obrero durante su desarrollo hacia la era moderna.
TÍTULO ORIGINAL: Le jeune Karl Marx
AÑO: [Tienes que estar registrado y conectado para ver este vínculo]
DURACIÓN: 112 min.
PAÍS:  Francia
DIRECTOR: Raoul Peck
REPARTO: August Diehl, Stefan Konarske, Vicky Krieps, Olivier Gourmet, Hannah Steele, Eric Godon, Rolf Kanies, Stephen Hogan, Niels-Bruno Schmidt, Ulrich Brandhoff, Denis Lyons, Damien Marchal, Aran Bertetto, Wiebke Adam, Annabelle Lewiston
GÉNERO: [Tienes que estar registrado y conectado para ver este vínculo] | [Tienes que estar registrado y conectado para ver este vínculo] Siglo XIX

Capturas



Trailer

Info
CALIDAD DE VIDEO: BDRip m1080p MPEG4 Video (H264) 1920x808
CALIDAD DE AUDIO 2: Castellano AC-3 2 canales 448 Kbps
CALIDAD DE AUDIO 3: Inglés AC-3 5.1 448 Kbps
SUBTITULOS: Incluye completos  en español e inglés y forzados en español.
TAMAÑO: 4.16 GiB
Mediainfo:
Format : Matroska
Format version : Version 4 / Version 2
File size : 4.16 GiB
Duration : 1 h 58 min
Overall bit rate : 5 042 kb/s
Movie name : El joven Karl Marx - [Tienes que estar registrado y conectado para ver este vínculo]
Encoded date : UTC 2018-05-12 17:44:59
Writing application : mkvmerge v23.0.0 ('The Bride Said No') 64-bit
Writing library : libebml v1.3.6 + libmatroska v1.4.9


Video
ID : 1
Format : AVC
Format/Info : Advanced Video Codec
Format profile : High@L4.1
Format settings : CABAC / 5 Ref Frames
Format settings, CABAC : Yes
Format settings, RefFrames : 5 frames
Codec ID : V_MPEG4/ISO/AVC
Duration : 1 h 58 min
Bit rate : 4 144 kb/s
Width : 1 920 pixels
Height : 808 pixels
Display aspect ratio : 2.40:1
Frame rate mode : Constant
Frame rate : 24.000 FPS
Color space : YUV
Chroma subsampling : 4:2:0
Bit depth : 8 bits
Scan type : Progressive
Bits/(Pixel*Frame) : 0.111
Stream size : 3.42 GiB (82%)
Title : AVC
Writing library : x264 core 152 r2851 ba24899
Encoding settings : cabac=1 / ref=5 / deblock=1:-3:-3 / analyse=0x3:0x113 / me=umh / subme=11 / psy=1 / psy_rd=1.10:0.00 / mixed_ref=1 / me_range=48 / chroma_me=1 / trellis=2 / 8x8dct=1 / cqm=0 / deadzone=21,11 / fast_pskip=0 / chroma_qp_offset=-2 / threads=25 / lookahead_threads=2 / sliced_threads=0 / nr=0 / decimate=1 / interlaced=0 / bluray_compat=0 / constrained_intra=0 / bframes=6 / b_pyramid=2 / b_adapt=2 / b_bias=0 / direct=1 / weightb=1 / open_gop=0 / weightp=2 / keyint=240 / keyint_min=24 / scenecut=40 / intra_refresh=0 / rc_lookahead=70 / rc=crf / mbtree=1 / crf=23.5 / qcomp=0.65 / qpmin=0 / qpmax=69 / qpstep=4 / vbv_maxrate=62500 / vbv_bufsize=78125 / crf_max=0.0 / nal_hrd=none / filler=0 / ip_ratio=1.40 / aq=1:1.10
Language : Spanish
Default : Yes
Forced : Yes


Audio [Tienes que estar registrado y conectado para ver este vínculo]
ID : 2
Format : AC-3
Format/Info : Audio Coding 3
Format settings, Endianness : Big
Codec ID : A_AC3
Duration : 1 h 58 min
Bit rate mode : Constant
Bit rate : 448 kb/s
Channel(s) : 2 channels
Channel positions : Front: L R
Sampling rate : 48.0 kHz
Frame rate : 31.250 FPS (1536 SPF)
Bit depth : 16 bits
Compression mode : Lossy
Stream size : 379 MiB (9%)
Title : AC-3
Language : Spanish
Service kind : Complete Main
Default : Yes
Forced : Yes


Audio [Tienes que estar registrado y conectado para ver este vínculo]
ID : 3
Format : AC-3
Format/Info : Audio Coding 3
Format settings, Endianness : Big
Codec ID : A_AC3
Duration : 1 h 58 min
Bit rate mode : Constant
Bit rate : 448 kb/s
Channel(s) : 6 channels
Channel positions : Front: L C R, Side: L R, LFE
Sampling rate : 48.0 kHz
Frame rate : 31.250 FPS (1536 SPF)
Bit depth : 16 bits
Compression mode : Lossy
Stream size : 379 MiB (9%)
Title : AC-3
Language : German
Service kind : Complete Main
Default : No
Forced : No


Text [Tienes que estar registrado y conectado para ver este vínculo]
ID : 4
Format : UTF-8
Codec ID : S_TEXT/UTF8
Codec ID/Info : UTF-8 Plain Text
Duration : 1 min 15 s
Bit rate : 55 b/s
Count of elements : 16
Stream size : 524 Bytes (0%)
Title : Forzados
Language : Spanish
Default : Yes
Forced : Yes


Text [Tienes que estar registrado y conectado para ver este vínculo]
ID : 5
Format : UTF-8
Codec ID : S_TEXT/UTF8
Codec ID/Info : UTF-8 Plain Text
Duration : 1 h 52 min
Bit rate : 66 b/s
Count of elements : 1719
Stream size : 55.2 KiB (0%)
Title : Completos
Language : Spanish
Default : No
Forced : No


Text [Tienes que estar registrado y conectado para ver este vínculo]
ID : 6
Format : UTF-8
Codec ID : S_TEXT/UTF8
Codec ID/Info : UTF-8 Plain Text
Duration : 1 h 56 min
Bit rate : 55 b/s
Count of elements : 1440
Stream size : 47.1 KiB (0%)
Title : Completos
Language : English
Default : No
Forced : No


Menu
00:00:00.000 : en:Chapter 1
00:07:10.041 : en:Chapter 2
00:14:44.208 : en:Chapter 3
00:25:16.583 : en:Chapter 4
00:34:40.208 : en:Chapter 5
00:42:23.666 : en:Chapter 6
00:55:23.500 : en:Chapter 7
01:02:14.625 : en:Chapter 8
01:11:52.041 : en:Chapter 9
01:28:04.458 : en:Chapter 10
01:40:50.083 : en:Chapter 11
01:51:53.208 : en:Chapter 12


Enlaces Descarga
Tusfiles - Uptobox - 1fichier - Depositfiles - Filebebo - Rapidgator - Wayupload
En algunos servidores (Tusfiles, Filebebo, Userscloud...) es necesario estar registrado para descargar a mayor velocidad.


Enlaces Online
Rapidvideo - Openload - Vidoza - Streamango - Vidlox - Userscloud - Filebebo
Para ver online en Userscloud necesitas estar registrado en su página y usar el navegador Google Chrome


Reproductor



NOTA: Por favor, si los enlaces están caidos avisa en un comentario para poder resubirlos. Gracias

______________________________________________________
[Tienes que estar registrado y conectado para ver este vínculo]
Saludos  Smile
Volver arriba
Permisos de este foro:
No puedes responder a temas en este foro.