Comparte
Ir abajo
avatar
Admin
Administrador
Administrador
Sexo : Masculino
Mensajes : 1060
Puntos : 3659
Reputación : 894
Fecha de inscripción : 02/04/2012
Localización : España

Thriller Gorrión rojo (2018) [Ver Online] [Descargar] [HD 1080p] [Spanish-English] [Thriller]

el Jue 17 Mayo 2018 - 17:43
Reputación del mensaje :100% (1 voto)

Ficha Técnica
SINOPSIS: Dominika Egorova (Jennifer Lawrence) es reclutada contra su voluntad para ser un “gorrión”, una seductora adiestrada del servicio de seguridad ruso. Dominika aprende a utilizar su cuerpo como arma, pero lucha por conservar su sentido de la identidad durante el deshumanizador proceso de entrenamiento. Hallando su fuerza en un sistema injusto, se revela como uno de los activos más sólidos del programa. Su primer objetivo es Nate Nash (Joel Edgerton), un funcionario de la CIA que dirige la infiltración más confidencial de la agencia en la inteligencia rusa. Los dos jóvenes agentes caen en una espiral de atracción y engaño que amenaza sus carreras, sus lealtades y la seguridad de sus respectivos países.
TÍTULO ORIGINAL: Red Sparrow
AÑO: [Tienes que estar registrado y conectado para ver este vínculo]
DURACIÓN: 139 min.
PAÍS:  Estados Unidos
DIRECTOR: Francis Lawrence
REPARTO: Jennifer Lawrence,  Joel Edgerton,  Jeremy Irons,  Charlotte Rampling, Mary-Louise Parker,  Matthias Schoenaerts,  Joely Richardson,  Nicole O'Neill, Sergej Onopko,  Sergei Polunin,  Kristof Konrad,  Simon Szabó,  Ciarán Hinds, Thekla Reuten,  Joel de la Fuente,  Sakina Jaffrey,  Douglas Hodge
GÉNERO: [Tienes que estar registrado y conectado para ver este vínculo] | [Tienes que estar registrado y conectado para ver este vínculo] Thriller psicológico

Capturas



Trailer

Info
CALIDAD DE VIDEO: BDRip m1080p MPEG4 Video (H264) 1920x800
CALIDAD DE AUDIO 2: Castellano DTS - 5.1 - 768 Kbps
CALIDAD DE AUDIO 2: Castellano AC-3 - 5.1 - 448 Kbps
CALIDAD DE AUDIO 3: Inglés AC-3 - 5.1 - 448 Kbps
SUBTITULOS: Incluye completos  en español e inglés y forzados en español.
TAMAÑO: 5.86 GiB
Mediainfo:
Format                      : Matroska
Format version              : Version 4 / Version 2
File size                   : 5.86 GiB
Duration                    : 2 h 20 min
Overall bit rate            : 5 983 kb/s
Movie name                  : Gorrión Rojo - [Tienes que estar registrado y conectado para ver este vínculo]
Encoded date                : UTC 2018-05-15 21:20:17
Writing application         : mkvmerge v23.0.0 ('The Bride Said No') 64-bit

           
Video
ID                          : 1
Format                      : AVC
Format/Info                 : Advanced Video Codec
Format profile              : High@L4.1
Format settings             : CABAC / 4 Ref Frames
Format settings, CABAC      : Yes
Format settings, RefFrames  : 4 frames
Codec ID                    : V_MPEG4/ISO/AVC
Duration                    : 2 h 20 min
Bit rate                    : 4 311 kb/s
Width                       : 1 920 pixels
Height                      : 800 pixels
Display aspect ratio        : 2.40:1
Frame rate mode             : Constant
Frame rate                  : 23.976 (24000/1001) FPS
Color space                 : YUV
Chroma subsampling          : 4:2:0
Bit depth                   : 8 bits
Scan type                   : Progressive
Bits/(Pixel*Frame)          : 0.117
Stream size                 : 4.22 GiB (72%)
Title                       : AVC
Writing library             : x264 core 146 r2538 121396c
Encoding settings           : cabac=1 / ref=3 / deblock=1👎-1 / analyse=0x3:0x113 / me=hex / subme=7 / psy=1 / psy_rd=1.00:0.15 / mixed_ref=1 / me_range=16 / chroma_me=1 / trellis=2 / 8x8dct=1 / cqm=0 / deadzone=21,11 / fast_pskip=1 / chroma_qp_offset=-3 / threads=6 / lookahead_threads=1 / sliced_threads=0 / nr=0 / decimate=1 / interlaced=0 / bluray_compat=0 / constrained_intra=0 / bframes=3 / b_pyramid=2 / b_adapt=1 / b_bias=0 / direct=1 / weightb=1 / open_gop=0 / weightp=2 / keyint=240 / keyint_min=23 / scenecut=40 / intra_refresh=0 / rc_lookahead=40 / rc=2pass / mbtree=1 / bitrate=4311 / ratetol=1.0 / qcomp=0.80 / qpmin=0 / qpmax=69 / qpstep=4 / cplxblur=20.0 / qblur=0.5 / vbv_maxrate=62500 / vbv_bufsize=78125 / nal_hrd=none / filler=0 / ip_ratio=1.40 / aq=1:1.00
Language                    : Spanish
Default                     : Yes
Forced                      : Yes


Audio [Tienes que estar registrado y conectado para ver este vínculo]
ID                          : 2
Format                      : DTS
Format/Info                 : Digital Theater Systems
Mode                        : 16
Format settings, Endianness : Big
Codec ID                    : A_DTS
Duration                    : 2 h 20 min
Bit rate mode               : Constant
Bit rate                    : 768 kb/s
Channel(s)                  : 6 channels
Channel positions           : Front: L C R, Side: L R, LFE
Sampling rate               : 48.0 kHz
Frame rate                  : 93.750 FPS (512 SPF)
Bit depth                   : 24 bits
Compression mode            : Lossy
Delay relative to video     : 35 ms
Stream size                 : 770 MiB (13%)
Title                       : DTS
Language                    : Spanish
Default                     : No
Forced                      : No


Audio [Tienes que estar registrado y conectado para ver este vínculo]
ID                          : 3
Format                      : AC-3
Format/Info                 : Audio Coding 3
Format settings, Endianness : Big
Codec ID                    : A_AC3
Duration                    : 2 h 20 min
Bit rate mode               : Constant
Bit rate                    : 448 kb/s
Channel(s)                  : 6 channels
Channel positions           : Front: L C R, Side: L R, LFE
Sampling rate               : 48.0 kHz
Frame rate                  : 31.250 FPS (1536 SPF)
Bit depth                   : 16 bits
Compression mode            : Lossy
Stream size                 : 449 MiB (7%)
Title                       : AC-3
Language                    : Spanish
Service kind                : Complete Main
Default                     : Yes
Forced                      : Yes


Audio [Tienes que estar registrado y conectado para ver este vínculo]
ID                          : 4
Format                      : AC-3
Format/Info                 : Audio Coding 3
Format settings, Endianness : Big
Codec ID                    : A_AC3
Duration                    : 2 h 20 min
Bit rate mode               : Constant
Bit rate                    : 448 kb/s
Channel(s)                  : 6 channels
Channel positions           : Front: L C R, Side: L R, LFE
Sampling rate               : 48.0 kHz
Frame rate                  : 31.250 FPS (1536 SPF)
Bit depth                   : 16 bits
Compression mode            : Lossy
Stream size                 : 449 MiB (7%)
Title                       : AC-3
Language                    : English
Service kind                : Complete Main
Default                     : No
Forced                      : No


Text [Tienes que estar registrado y conectado para ver este vínculo]
ID                          : 5
Format                      : UTF-8
Codec ID                    : S_TEXT/UTF8
Codec ID/Info               : UTF-8 Plain Text
Duration                    : 2 h 2 min
Bit rate                    : 0 b/s
Count of elements           : 5
Stream size                 : 122 Bytes (0%)
Title                       : Forzados
Language                    : Spanish
Default                     : Yes
Forced                      : Yes


Text [Tienes que estar registrado y conectado para ver este vínculo]
ID                          : 6
Format                      : UTF-8
Codec ID                    : S_TEXT/UTF8
Codec ID/Info               : UTF-8 Plain Text
Duration                    : 2 h 11 min
Bit rate                    : 46 b/s
Count of elements           : 1460
Stream size                 : 44.6 KiB (0%)
Title                       : Completos
Language                    : Spanish
Default                     : No
Forced                      : No


Text [Tienes que estar registrado y conectado para ver este vínculo]
ID                          : 7
Format                      : PGS
Muxing mode                 : zlib
Codec ID                    : S_HDMV/PGS
Codec ID/Info               : Picture based subtitle format used on BDs/HD-DVDs
Duration                    : 2 h 18 min
Bit rate                    : 25.7 kb/s
Count of elements           : 2916
Stream size                 : 25.5 MiB (0%)
Title                       : Completos
Language                    : Spanish
Default                     : No
Forced                      : No


Text [Tienes que estar registrado y conectado para ver este vínculo]
ID                          : 8
Format                      : UTF-8
Codec ID                    : S_TEXT/UTF8
Codec ID/Info               : UTF-8 Plain Text
Duration                    : 2 h 11 min
Bit rate                    : 47 b/s
Count of elements           : 1599
Stream size                 : 45.8 KiB (0%)
Title                       : Completos
Language                    : English
Default                     : No
Forced                      : No


Menu
00:00:00.000                : en:00:00:00.000
00:08:00.105                : en:00:08:00.105
00:11:31.983                : en:00:11:31.983
00:16:57.183                : en:00:16:57.183
00:21:09.643                : en:00:21:09.643
00:27:21.265                : en:00:27:21.265
00:33:03.356                : en:00:33:03.356
00:38:09.245                : en:00:38:09.245
00:42:29.130                : en:00:42:29.130
00:46:41.799                : en:00:46:41.799
00:54:14.334                : en:00:54:14.334
00:58:45.480                : en:00:58:45.480
01:04:55.266                : en:01:04:55.266
01:10:26.139                : en:01:10:26.139
01:16:28.250                : en:01:16:28.250
01:26:44.699                : en:01:26:44.699
01:32:06.938                : en:01:32:06.938
01:36:22.443                : en:01:36:22.443
01:41:53.149                : en:01:41:53.149
01:49:48.415                : en:01:49:48.415
01:53:45.610                : en:01:53:45.610
01:58:52.083                : en:01:58:52.083
02:07:20.132                : en:02:07:20.132
02:13:40.095                : en:02:13:40.095


Enlaces Descarga
[Tienes que estar registrado y conectado para ver este vínculo] - [Tienes que estar registrado y conectado para ver este vínculo] - [Tienes que estar registrado y conectado para ver este vínculo] - [Tienes que estar registrado y conectado para ver este vínculo] - [Tienes que estar registrado y conectado para ver este vínculo] - [Tienes que estar registrado y conectado para ver este vínculo]
En algunos servidores (Tusfiles, Filebebo, Userscloud...) es necesario estar registrado para descargar a mayor velocidad.


Enlaces Online
[Tienes que estar registrado y conectado para ver este vínculo] - [Tienes que estar registrado y conectado para ver este vínculo] - [Tienes que estar registrado y conectado para ver este vínculo] - [Tienes que estar registrado y conectado para ver este vínculo] - [Tienes que estar registrado y conectado para ver este vínculo] - [Tienes que estar registrado y conectado para ver este vínculo] - [Tienes que estar registrado y conectado para ver este vínculo]
Para ver online en Userscloud necesitas estar registrado en su página y usar el navegador [Tienes que estar registrado y conectado para ver este vínculo]


Reproductor



NOTA: Por favor, si los enlaces están caidos avisa en un comentario para poder resubirlos. Gracias

______________________________________________________
Saludos  Smile
Volver arriba
Permisos de este foro:
No puedes responder a temas en este foro.