Comparte
Ir abajo
avatar
Admin
Administrador
Administrador
Sexo : Masculino
Mensajes : 1060
Puntos : 3659
Reputación : 894
Fecha de inscripción : 02/04/2012
Localización : España

Romance Cincuenta sombras liberadas (2018) [Ver + Descargar] [HD 1080p] [Spe-Eng] [Romance]

el Jue 17 Mayo 2018 - 19:35
Reputación del mensaje :100% (1 voto)

Ficha Técnica
SINOPSIS: Creyendo que han dejado atrás las sombras del pasado, los recién casados Christian y Anastasia disfrutan de su relación y de su vida llena de lujos. Pero justo cuando Ana empieza a relajarse, aparecen nuevas amenazas que ponen en riesgo su felicidad. Adaptación de la última novela de la saga "50 sombras de Grey".
TÍTULO ORIGINAL: Fifty Shades Freed
AÑO: [Tienes que estar registrado y conectado para ver este vínculo]
DURACIÓN: 105 min.
PAÍS:  Estados Unidos
DIRECTOR: James Foley
REPARTO: Dakota Johnson, Jamie Dornan, Eric Johnson, Eloise Mumford, Rita Ora, Luke Grimes, Victor Rasuk, Max Martini, Callum Keith Rennie, Bruce Altman, Arielle Kebbel, Robinne Lee, Brant Daugherty, Kim Basinger, Marcia Gay Harden, Fay Masterson, Tyler Hoechlin, Dylan Neal, Michelle Harrison, Amy Price-Francis, Andrew Airlie, Sachin Sahel, Gary Hudson, John Emmet Tracy, Lisa MacFadden, Laura Jacobs, Brad Harder, Ashleigh LaThrop
GÉNERO: [Tienes que estar registrado y conectado para ver este vínculo] [Tienes que estar registrado y conectado para ver este vínculo] | Drama [Tienes que estar registrado y conectado para ver este vínculo] [Tienes que estar registrado y conectado para ver este vínculo] [Tienes que estar registrado y conectado para ver este vínculo]

Capturas



Trailer

Info
CALIDAD DE VIDEO: BDRip m1080p MPEG4 Video (H264) 1920x800
CALIDAD DE AUDIO 2: Castellano AC-3 - 5.1 - 448 Kbps
CALIDAD DE AUDIO 3: Inglés AC-3 - 5.1 - 448 Kbps
SUBTITULOS: Incluye completos  en español e inglés y forzados en español.
TAMAÑO: 4.37 GiB
Mediainfo:
Format : Matroska
Format version : Version 4 / Version 2
File size : 4.37 GiB
Duration : 1 h 50 min
Overall bit rate : 5 668 kb/s
Movie name : Cincuenta sombras liberadas - [Tienes que estar registrado y conectado para ver este vínculo]
Encoded date : UTC 2018-05-17 02:14:34
Writing application : mkvmerge v23.0.0 ('The Bride Said No') 64-bit
Writing library : libebml v1.3.6 + libmatroska v1.4.9


Video
ID : 1
Format : AVC
Format/Info : Advanced Video Codec
Format profile : High@L4.1
Format settings : CABAC / 2 Ref Frames
Format settings, CABAC : Yes
Format settings, RefFrames : 2 frames
Codec ID : V_MPEG4/ISO/AVC
Duration : 1 h 50 min
Bit rate : 4 770 kb/s
Width : 1 920 pixels
Height : 800 pixels
Display aspect ratio : 2.40:1
Frame rate mode : Constant
Frame rate : 23.976 (24000/1001) FPS
Color space : YUV
Chroma subsampling : 4:2:0
Bit depth : 8 bits
Scan type : Progressive
Bits/(Pixel*Frame) : 0.130
Stream size : 3.67 GiB (84%)
Title : AVC
Writing library : x264 core 142
Encoding settings : cabac=1 / ref=1 / deblock=1👎-1 / analyse=0x3:0 / me=hex / subme=5 / psy=0 / mixed_ref=0 / me_range=16 / chroma_me=1 / trellis=0 / 8x8dct=1 / cqm=0 / deadzone=21,11 / fast_pskip=0 / chroma_qp_offset=0 / threads=16 / lookahead_threads=4 / sliced_threads=0 / nr=0 / decimate=1 / interlaced=0 / bluray_compat=0 / constrained_intra=0 / bframes=2 / b_pyramid=0 / b_adapt=1 / b_bias=0 / direct=1 / weightb=0 / open_gop=0 / weightp=0 / keyint=24 / keyint_min=13 / scenecut=40 / intra_refresh=0 / rc=crf / mbtree=0 / crf=22.0 / qcomp=0.60 / qpmin=0 / qpmax=69 / qpstep=4 / ip_ratio=1.40 / pb_ratio=1.30 / aq=1:1.00
Language : Spanish
Default : Yes
Forced : Yes
Color range : Limited
Color primaries : BT.709
Transfer characteristics : BT.709
Matrix coefficients : BT.709


Audio [Tienes que estar registrado y conectado para ver este vínculo]
ID : 2
Format : AC-3
Format/Info : Audio Coding 3
Format settings, Endianness : Big
Codec ID : A_AC3
Duration : 1 h 50 min
Bit rate mode : Constant
Bit rate : 448 kb/s
Channel(s) : 6 channels
Channel positions : Front: L C R, Side: L R, LFE
Sampling rate : 48.0 kHz
Frame rate : 31.250 FPS (1536 SPF)
Bit depth : 16 bits
Compression mode : Lossy
Stream size : 353 MiB (8%)
Title : AC-3
Language : Spanish
Service kind : Complete Main
Default : Yes
Forced : Yes


Audio [Tienes que estar registrado y conectado para ver este vínculo]
ID : 3
Format : AC-3
Format/Info : Audio Coding 3
Format settings, Endianness : Big
Codec ID : A_AC3
Duration : 1 h 50 min
Bit rate mode : Constant
Bit rate : 448 kb/s
Channel(s) : 6 channels
Channel positions : Front: L C R, Side: L R, LFE
Sampling rate : 48.0 kHz
Frame rate : 31.250 FPS (1536 SPF)
Bit depth : 16 bits
Compression mode : Lossy
Stream size : 353 MiB (8%)
Title : AC-3
Language : English
Service kind : Complete Main
Default : No
Forced : No


Text [Tienes que estar registrado y conectado para ver este vínculo]
ID : 4
Format : UTF-8
Codec ID : S_TEXT/UTF8
Codec ID/Info : UTF-8 Plain Text
Duration : 1 h 41 min
Bit rate : 1 b/s
Count of elements : 32
Stream size : 975 Bytes (0%)
Title : Forzados
Language : Spanish
Default : Yes
Forced : Yes


Text [Tienes que estar registrado y conectado para ver este vínculo]
ID : 5
Format : UTF-8
Codec ID : S_TEXT/UTF8
Codec ID/Info : UTF-8 Plain Text
Duration : 1 h 49 min
Bit rate : 39 b/s
Count of elements : 1358
Stream size : 31.5 KiB (0%)
Title : Completos
Language : Spanish
Default : No
Forced : No


Text [Tienes que estar registrado y conectado para ver este vínculo]
ID : 6
Format : UTF-8
Codec ID : S_TEXT/UTF8
Codec ID/Info : UTF-8 Plain Text
Duration : 1 h 43 min
Bit rate : 57 b/s
Count of elements : 1569
Stream size : 43.5 KiB (0%)
Title : Completos
Language : English
Default : No
Forced : No


Menu
00:00:00.000 : en:00:00:00.000
00:05:32.958 : en:00:05:32.958
00:13:26.264 : en:00:13:26.264
00:21:26.160 : en:00:21:26.160
00:26:51.860 : en:00:26:51.860
00:30:39.546 : en:00:30:39.546
00:34:15.428 : en:00:34:15.428
00:39:07.345 : en:00:39:07.345
00:43:25.186 : en:00:43:25.186
00:49:14.660 : en:00:49:14.660
00:53:16.360 : en:00:53:16.360
00:57:47.005 : en:00:57:47.005
01:01:28.268 : en:01:01:28.268
01:07:16.532 : en:01:07:16.532
01:14:46.649 : en:01:14:46.649
01:20:35.330 : en:01:20:35.330
01:28:10.368 : en:01:28:10.368
01:33:12.712 : en:01:33:12.712
01:37:56.996 : en:01:37:56.996
01:43:46.428 : en:01:43:46.428


Enlaces Descarga
[Tienes que estar registrado y conectado para ver este vínculo] - [Tienes que estar registrado y conectado para ver este vínculo] - [Tienes que estar registrado y conectado para ver este vínculo] - [Tienes que estar registrado y conectado para ver este vínculo] - [Tienes que estar registrado y conectado para ver este vínculo] - [Tienes que estar registrado y conectado para ver este vínculo] - [Tienes que estar registrado y conectado para ver este vínculo] - [Tienes que estar registrado y conectado para ver este vínculo]
En algunos servidores (Tusfiles, Filebebo, Userscloud...) es necesario estar registrado para descargar a mayor velocidad.


Enlaces Online
[Tienes que estar registrado y conectado para ver este vínculo] - [Tienes que estar registrado y conectado para ver este vínculo] - [Tienes que estar registrado y conectado para ver este vínculo] - [Tienes que estar registrado y conectado para ver este vínculo] - [Tienes que estar registrado y conectado para ver este vínculo] - [Tienes que estar registrado y conectado para ver este vínculo] - [Tienes que estar registrado y conectado para ver este vínculo]
Para ver online en Userscloud necesitas estar registrado en su página y usar el navegador [Tienes que estar registrado y conectado para ver este vínculo]


Reproductor



NOTA: Por favor, si los enlaces están caidos avisa en un comentario para poder resubirlos. Gracias

______________________________________________________
Saludos  Smile
Volver arriba
Permisos de este foro:
No puedes responder a temas en este foro.