Comparte
Ir abajo
avatar
Admin
Administrador
Administrador
Sexo : Masculino
Mensajes : 1514
Puntos : 4771
Reputación : 1103
Fecha de inscripción : 02/04/2012
Localización : España

C.Ficción Aniquilación (2018) [Ver Online] [Descargar] [HD 1080p] [Español-Inglés] [C.Ficción]

el Vie 18 Mayo 2018 - 23:51
Reputación del mensaje :100% (1 voto)

Ficha Técnica
SINOPSIS: Cuando su marido desaparece durante una misión secreta para regresar sin recordar nada, la bióloga Lena se une a una expedición a una misteriosa región acordonada por el gobierno de los Estados Unidos. El grupo, compuesto por 5 mujeres científicas, investiga la zona X, un intrigante lugar controlado por una poderosa fuerza alienígena. La zona X es un lugar al que han ido otras expediciones, pero del que ninguna ha vuelto.
TÍTULO ORIGINAL: Annihilation
AÑO: [Tienes que estar registrado y conectado para ver este vínculo]
DURACIÓN: 115 min.
PAÍS:  Estados Unidos
DIRECTOR: Alex Garland
REPARTO: Natalie Portman,  Óscar Isaac,  Jennifer Jason Leigh,  Gina Rodriguez, Tessa Thompson,  Benedict Wong,  David Gyasi,  Sonoya Mizuno,  Crystal Clarke, Kumud Pant,  Tuva Novotny,  Cosmo Jarvis,  Mairead Armstrong
GÉNERO: Ciencia [Tienes que estar registrado y conectado para ver este vínculo] [Tienes que estar registrado y conectado para ver este vínculo] | Thriller [Tienes que estar registrado y conectado para ver este vínculo]

Capturas



Trailer

Info
CALIDAD DE VIDEO: BDRip m1080p MPEG4 Video (H264) 1920x804
CALIDAD DE AUDIO 2: Castellano AC-3 - 5.1 - 448 Kbps
CALIDAD DE AUDIO 3: Inglés AC-3 - 5.1 - 448 Kbps
SUBTITULOS: Incluye completos  en español e inglés y forzados en español.
TAMAÑO: 4.91 GiB
Mediainfo:
Format                      : Matroska
Format version              : Version 4 / Version 2
File size                   : 4.91 GiB
Duration                    : 1 h 54 min
Overall bit rate            : 6 107 kb/s
Movie name                  : Aniquilación - [Tienes que estar registrado y conectado para ver este vínculo]
Encoded date                : UTC 2018-05-17 15:02:09
Writing application         : mkvmerge v23.0.0 ('The Bride Said No') 64-bit
Writing library             : libebml v1.3.6 + libmatroska v1.4.9


Video
ID                          : 1
Format                      : AVC
Format/Info                 : Advanced Video Codec
Format profile              : High@L4.1
Format settings             : CABAC / 2 Ref Frames
Format settings, CABAC      : Yes
Format settings, RefFrames  : 2 frames
Format settings, GOP        : M=3, N=24
Codec ID                    : V_MPEG4/ISO/AVC
Duration                    : 1 h 54 min
Bit rate                    : 5 209 kb/s
Width                       : 1 920 pixels
Height                      : 804 pixels
Display aspect ratio        : 2.40:1
Frame rate mode             : Constant
Frame rate                  : 23.976 (24000/1001) FPS
Color space                 : YUV
Chroma subsampling          : 4:2:0
Bit depth                   : 8 bits
Scan type                   : Progressive
Bits/(Pixel*Frame)          : 0.141
Stream size                 : 4.18 GiB (85%)
Title                       : AVC
Writing library             : x264 core 142
Encoding settings           : cabac=1 / ref=1 / deblock=1👎-1 / analyse=0x3:0 / me=hex / subme=5 / psy=0 / mixed_ref=0 / me_range=16 / chroma_me=1 / trellis=0 / 8x8dct=1 / cqm=0 / deadzone=21,11 / fast_pskip=1 / chroma_qp_offset=0 / threads=32 / lookahead_threads=6 / sliced_threads=0 / nr=0 / decimate=1 / interlaced=0 / bluray_compat=0 / constrained_intra=0 / bframes=2 / b_pyramid=0 / b_adapt=1 / b_bias=0 / direct=1 / weightb=1 / open_gop=0 / weightp=0 / keyint=24 / keyint_min=13 / scenecut=40 / intra_refresh=0 / rc=crf / mbtree=0 / crf=21.0 / qcomp=0.60 / qpmin=0 / qpmax=69 / qpstep=4 / ip_ratio=1.40 / pb_ratio=1.30 / aq=1:1.00
Language                    : Spanish
Default                     : Yes
Forced                      : Yes
Color range                 : Limited
Color primaries             : BT.709
Transfer characteristics    : BT.709
Matrix coefficients         : BT.709


Audio [Tienes que estar registrado y conectado para ver este vínculo]
ID                          : 2
Format                      : AC-3
Format/Info                 : Audio Coding 3
Format settings, Endianness : Big
Codec ID                    : A_AC3
Duration                    : 1 h 54 min
Bit rate mode               : Constant
Bit rate                    : 448 kb/s
Channel(s)                  : 6 channels
Channel positions           : Front: L C R, Side: L R, LFE
Sampling rate               : 48.0 kHz
Frame rate                  : 31.250 FPS (1536 SPF)
Bit depth                   : 16 bits
Compression mode            : Lossy
Stream size                 : 368 MiB (7%)
Title                       : AC-3
Language                    : Spanish
Service kind                : Complete Main
Default                     : Yes
Forced                      : Yes


Audio [Tienes que estar registrado y conectado para ver este vínculo]
ID                          : 3
Format                      : AC-3
Format/Info                 : Audio Coding 3
Format settings, Endianness : Big
Codec ID                    : A_AC3
Duration                    : 1 h 54 min
Bit rate mode               : Constant
Bit rate                    : 448 kb/s
Channel(s)                  : 6 channels
Channel positions           : Front: L C R, Side: L R, LFE
Sampling rate               : 48.0 kHz
Frame rate                  : 31.250 FPS (1536 SPF)
Bit depth                   : 16 bits
Compression mode            : Lossy
Stream size                 : 368 MiB (7%)
Title                       : AC-3
Language                    : English
Service kind                : Complete Main
Default                     : No
Forced                      : No


Text [Tienes que estar registrado y conectado para ver este vínculo]
ID                          : 4
Format                      : UTF-8
Codec ID                    : S_TEXT/UTF8
Codec ID/Info               : UTF-8 Plain Text
Duration                    : 1 h 48 min
Bit rate                    : 0 b/s
Count of elements           : 9
Stream size                 : 194 Bytes (0%)
Title                       : Forzados
Language                    : Spanish
Default                     : Yes
Forced                      : Yes


Text [Tienes que estar registrado y conectado para ver este vínculo]
ID                          : 5
Format                      : UTF-8
Codec ID                    : S_TEXT/UTF8
Codec ID/Info               : UTF-8 Plain Text
Duration                    : 1 h 49 min
Bit rate                    : 29 b/s
Count of elements           : 885
Stream size                 : 23.8 KiB (0%)
Title                       : Completos
Language                    : Spanish
Default                     : No
Forced                      : No


Text [Tienes que estar registrado y conectado para ver este vínculo]
ID                          : 6
Format                      : UTF-8
Codec ID                    : S_TEXT/UTF8
Codec ID/Info               : UTF-8 Plain Text
Duration                    : 1 h 46 min
Bit rate                    : 34 b/s
Count of elements           : 940
Stream size                 : 26.8 KiB (0%)
Title                       : Completos
Language                    : English
Default                     : No
Forced                      : No


Menu
00:00:00.000                : en:00:00:00.000
00:05:09.309                : en:00:05:09.309
00:11:39.157                : en:00:11:39.157
00:17:06.692                : en:00:17:06.692
00:24:08.656                : en:00:24:08.656
00:28:59.446                : en:00:28:59.446
00:37:24.242                : en:00:37:24.242
00:41:59.517                : en:00:41:59.517
00:49:11.448                : en:00:49:11.448
00:56:06.405                : en:00:56:06.405
01:03:22.298                : en:01:03:22.298
01:10:25.012                : en:01:10:25.012
01:17:21.929                : en:01:17:21.929
01:22:20.477                : en:01:22:20.477
01:30:26.296                : en:01:30:26.296
01:38:48.589                : en:01:38:48.589
01:43:58.357                : en:01:43:58.357
01:48:14.279                : en:01:48:14.279


Enlaces Descarga
Tusfiles - Uptobox - 1fichier - Depositfiles - Rapidgator - Userscloud - Wayupload
En algunos servidores (Tusfiles, Filebebo, Userscloud...) es necesario estar registrado para descargar a mayor velocidad.


Enlaces Online
Rapidvideo - Openload - Vidoza - Streamango - Vidlox - Userscloud - Downace
Para ver online en Userscloud necesitas estar registrado en su página y usar el navegador Google Chrome


Reproductor



NOTA: Por favor, si los enlaces están caidos avisa en un comentario para poder resubirlos. Gracias

______________________________________________________
Saludos  Smile
Volver arriba
Permisos de este foro:
No puedes responder a temas en este foro.