Comparte
Ir abajo
avatar
Admin
Administrador
Administrador
Sexo : Masculino
Mensajes : 975
Puntos : 3407
Reputación : 849
Fecha de inscripción : 02/04/2012
Localización : España

Thriller El pasajero (2018) [Ver Online] [Descargar] [HD 1080p] [Spaniah-English] [Thriller]

el Dom 20 Mayo 2018 - 16:19
Reputación del mensaje :100% (1 voto)

Ficha Técnica
SINOPSIS: Durante su trayecto habitual de vuelta a casa en tren, un hombre de negocios felizmente casado comienza a hablar con una misteriosa pasajera. Pronto el hombre se verá envuelto en una conspiración criminal que amenaza con poner en peligro tanto su vida como la de sus seres más cercanos.
TÍTULO ORIGINAL: The Commuter
AÑO: [Tienes que estar registrado y conectado para ver este vínculo]
DURACIÓN: 1 h 44 min
PAÍS:  Estados Unidos
DIRECTOR: Jaume Collet-Serra
REPARTO: Liam Neeson,  Patrick Wilson,  Vera Farmiga,  Sam Neill,  Jonathan Banks, Elizabeth McGovern,  Dean-Charles Chapman,  Clara Lago,  Florence Pugh, Letitia Wright,  Shazad Latif,  Killian Scott,  Andy Nyman,  Roland Møller, Colin McFarlane,  Dilyana Bouklieva,  Adam Nagaitis,  Kingsley Ben-Adir, Kobna Holdbrook-Smith
GÉNERO: [Tienes que estar registrado y conectado para ver este vínculo] | Trenes/Metros

Capturas



Trailer

Info
CALIDAD DE VIDEO: BDRip m1080p MPEG4 Video (H264) 1920x804
CALIDAD DE AUDIO 1: Castellano DTS - 5.1 - 768 Kbps
CALIDAD DE AUDIO 2: Castellano AC-3 - 5.1 - 448 Kbps
CALIDAD DE AUDIO 3: Inglés AC-3 - 5.1 - 448 Kbps
SUBTITULOS: Incluye completos  en español e inglés y forzados en español.
TAMAÑO: 5.38 GiB
Mediainfo:
Format                      : Matroska
Format version              : Version 4 / Version 2
File size                   : 5.38 GiB
Duration                    : 1 h 44 min
Overall bit rate            : 7 338 kb/s
Movie name                  : El Pasajero - [Tienes que estar registrado y conectado para ver este vínculo]
Encoded date                : UTC 2018-05-18 22:45:56
Writing application         : mkvmerge v23.0.0 ('The Bride Said No') 64-bit
Writing library             : libebml v1.3.6 + libmatroska v1.4.9


Video
ID                          : 1
Format                      : AVC
Format/Info                 : Advanced Video Codec
Format profile              : High@L4.1
Format settings             : CABAC / 5 Ref Frames
Format settings, CABAC      : Yes
Format settings, RefFrames  : 5 frames
Codec ID                    : V_MPEG4/ISO/AVC
Duration                    : 1 h 44 min
Bit rate                    : 5 671 kb/s
Width                       : 1 920 pixels
Height                      : 804 pixels
Display aspect ratio        : 2.40:1
Frame rate mode             : Constant
Frame rate                  : 23.976 (24000/1001) FPS
Color space                 : YUV
Chroma subsampling          : 4:2:0
Bit depth                   : 8 bits
Scan type                   : Progressive
Bits/(Pixel*Frame)          : 0.153
Stream size                 : 4.16 GiB (77%)
Title                       : AVC
Writing library             : x264 core 155 r2901 7d0ff22
Encoding settings           : cabac=1 / ref=5 / deblock=1:-3:-3 / analyse=0x3:0x113 / me=umh / subme=11 / psy=1 / psy_rd=1.10:0.00 / mixed_ref=1 / me_range=64 / chroma_me=1 / trellis=2 / 8x8dct=1 / cqm=0 / deadzone=21,11 / fast_pskip=0 / chroma_qp_offset=-2 / threads=25 / lookahead_threads=6 / sliced_threads=0 / nr=0 / decimate=1 / interlaced=0 / bluray_compat=0 / constrained_intra=0 / bframes=10 / b_pyramid=2 / b_adapt=2 / b_bias=0 / direct=1 / weightb=1 / open_gop=0 / weightp=2 / keyint=240 / keyint_min=23 / scenecut=40 / intra_refresh=0 / rc_lookahead=80 / rc=crf / mbtree=1 / crf=19.5 / qcomp=0.70 / qpmin=0 / qpmax=69 / qpstep=4 / vbv_maxrate=62500 / vbv_bufsize=78125 / crf_max=0.0 / nal_hrd=none / filler=0 / ip_ratio=1.40 / aq=1:1.10
Language                    : Spanish
Default                     : Yes
Forced                      : Yes
Color range                 : Limited
Color primaries             : BT.709
Transfer characteristics    : BT.709
Matrix coefficients         : BT.709


Audio [Tienes que estar registrado y conectado para ver este vínculo]
ID                          : 2
Format                      : DTS
Format/Info                 : Digital Theater Systems
Mode                        : 16
Format settings, Endianness : Big
Codec ID                    : A_DTS
Duration                    : 1 h 44 min
Bit rate mode               : Constant
Bit rate                    : 768 kb/s
Channel(s)                  : 6 channels
Channel positions           : Front: L C R, Side: L R, LFE
Sampling rate               : 48.0 kHz
Frame rate                  : 93.750 FPS (512 SPF)
Bit depth                   : 24 bits
Compression mode            : Lossy
Delay relative to video     : 860 ms
Stream size                 : 576 MiB (10%)
Title                       : DTS
Language                    : Spanish
Default                     : Yes
Forced                      : Yes


Audio [Tienes que estar registrado y conectado para ver este vínculo]
ID                          : 3
Format                      : AC-3
Format/Info                 : Audio Coding 3
Format settings, Endianness : Big
Codec ID                    : A_AC3
Duration                    : 1 h 44 min
Bit rate mode               : Constant
Bit rate                    : 448 kb/s
Channel(s)                  : 6 channels
Channel positions           : Front: L C R, Side: L R, LFE
Sampling rate               : 48.0 kHz
Frame rate                  : 31.250 FPS (1536 SPF)
Bit depth                   : 16 bits
Compression mode            : Lossy
Delay relative to video     : 860 ms
Stream size                 : 336 MiB (6%)
Title                       : AC-3
Language                    : Spanish
Service kind                : Complete Main
Default                     : No
Forced                      : No


Audio [Tienes que estar registrado y conectado para ver este vínculo]
ID                          : 4
Format                      : AC-3
Format/Info                 : Audio Coding 3
Format settings, Endianness : Big
Codec ID                    : A_AC3
Duration                    : 1 h 44 min
Bit rate mode               : Constant
Bit rate                    : 448 kb/s
Channel(s)                  : 6 channels
Channel positions           : Front: L C R, Side: L R, LFE
Sampling rate               : 48.0 kHz
Frame rate                  : 31.250 FPS (1536 SPF)
Bit depth                   : 16 bits
Compression mode            : Lossy
Stream size                 : 336 MiB (6%)
Title                       : AC-3
Language                    : English
Service kind                : Complete Main
Default                     : No
Forced                      : No


Text [Tienes que estar registrado y conectado para ver este vínculo]
ID                          : 5
Format                      : UTF-8
Codec ID                    : S_TEXT/UTF8
Codec ID/Info               : UTF-8 Plain Text
Duration                    : 26 min 55 s
Bit rate                    : 0 b/s
Count of elements           : 5
Stream size                 : 130 Bytes (0%)
Title                       : Forzados
Language                    : Spanish
Default                     : Yes
Forced                      : Yes


Text [Tienes que estar registrado y conectado para ver este vínculo]
ID                          : 6
Format                      : UTF-8
Codec ID                    : S_TEXT/UTF8
Codec ID/Info               : UTF-8 Plain Text
Duration                    : 1 h 37 min
Bit rate                    : 65 b/s
Count of elements           : 1285
Stream size                 : 46.7 KiB (0%)
Title                       : Completos
Language                    : Spanish
Default                     : No
Forced                      : No


Text [Tienes que estar registrado y conectado para ver este vínculo]
ID                          : 7
Format                      : UTF-8
Codec ID                    : S_TEXT/UTF8
Codec ID/Info               : UTF-8 Plain Text
Duration                    : 1 h 37 min
Bit rate                    : 63 b/s
Count of elements           : 1441
Stream size                 : 45.4 KiB (0%)
Title                       : Completos
Language                    : English
Default                     : No
Forced                      : No


Menu
00:00:00.000                : en:Chapter 1
00:05:38.255                : en:Chapter 2
00:12:23.493                : en:Chapter 3
00:16:54.472                : en:Chapter 4
00:25:36.118                : en:Chapter 5
00:32:20.855                : en:Chapter 6
00:41:37.954                : en:Chapter 7
00:44:38.217                : en:Chapter 8
00:52:38.989                : en:Chapter 9
00:59:30.650                : en:Chapter 10
01:04:50.845                : en:Chapter 11
01:11:53.517                : en:Chapter 12
01:20:23.318                : en:Chapter 13
01:25:23.160                : en:Chapter 14
01:30:45.648                : en:Chapter 15
01:37:26.340                : en:Chapter 16


Enlaces Descarga
[Tienes que estar registrado y conectado para ver este vínculo] - [Tienes que estar registrado y conectado para ver este vínculo] - [Tienes que estar registrado y conectado para ver este vínculo] - [Tienes que estar registrado y conectado para ver este vínculo] - [Tienes que estar registrado y conectado para ver este vínculo]
En algunos servidores (Tusfiles, Filebebo, Userscloud...) es necesario estar registrado para descargar a mayor velocidad.


Enlaces Online
[Tienes que estar registrado y conectado para ver este vínculo] - [Tienes que estar registrado y conectado para ver este vínculo] - [Tienes que estar registrado y conectado para ver este vínculo] - [Tienes que estar registrado y conectado para ver este vínculo] - [Tienes que estar registrado y conectado para ver este vínculo] - [Tienes que estar registrado y conectado para ver este vínculo] - [Tienes que estar registrado y conectado para ver este vínculo]
Para ver online en Userscloud necesitas estar registrado en su página y usar el navegador [Tienes que estar registrado y conectado para ver este vínculo]


Reproductor
(Rapidvideo)



NOTA: Por favor, si los enlaces están caidos avisa en un comentario para poder resubirlos. Gracias

______________________________________________________
Saludos  Smile
Volver arriba
Permisos de este foro:
No puedes responder a temas en este foro.