Comparte
Ir abajo
avatar
Admin
Administrador
Administrador
Sexo : Masculino
Mensajes : 1514
Puntos : 4771
Reputación : 1103
Fecha de inscripción : 02/04/2012
Localización : España

Bélico El instante más oscuro (2017) [Ver + Descargar] [HD 1080p] [Español-Inglés] [Bélico]

el Lun 21 Mayo 2018 - 23:35
Reputación del mensaje :100% (1 voto)

Ficha Técnica
SINOPSIS: Drama ambientado en 1940, cuando Winston Churchill (Gary Oldman) se convierte en primer ministro británico en un momento realmente crucial de la Segunda Guerra Mundial, pues los nazis avanzan imparables conquistando prácticamente la totalidad del continente europeo y amenazando con una invasión a Inglaterra. Churchill deberá entonces explorar la posibilidad de un tratado de paz con Alemania, o ser fiel a sus ideales y luchar por la liberación de Europa.
TÍTULO ORIGINAL: Darkest Hour
AÑO: [Tienes que estar registrado y conectado para ver este vínculo]
DURACIÓN: 125 min.
PAÍS:  Reino Unido
DIRECTOR: Joe Wright
REPARTO: Gary Oldman,  Ben Mendelsohn,  Kristin Scott Thomas,  Lily James,  Stephen Dillane, Richard Lumsden,  Philip Martin Brown,  Ronald Pickup,  Brian Pettifer,  Tom Ashley, Jordan Waller,  David Olawale Ayinde,  Michael Bott,  Danny Stewart,  John Locke
GÉNERO: [Tienes que estar registrado y conectado para ver este vínculo] [Tienes que estar registrado y conectado para ver este vínculo] | II Guerra Mundial. Años 40 [Tienes que estar registrado y conectado para ver este vínculo] [Tienes que estar registrado y conectado para ver este vínculo] [Tienes que estar registrado y conectado para ver este vínculo]

Capturas



Trailer

Info
CALIDAD DE VIDEO: BDRip m1080p MPEG4 Video (H264) 1920x1036
CALIDAD DE AUDIO 1: Castellano AC-3 - 5.1 - 640 Kbps
CALIDAD DE AUDIO 2: Inglés AC-3 - 5.1 - 448 Kbps
SUBTITULOS: Incluye completos  en español e inglés y forzados en español.
TAMAÑO: 4.85 GiB
Mediainfo:
Format                      : Matroska
Format version              : Version 4 / Version 2
File size                   : 4.85 GiB
Duration                    : 2 h 4 min
Overall bit rate            : 5 560 kb/s
Movie name                  : El instante más oscuro - [Tienes que estar registrado y conectado para ver este vínculo]
Encoded date                : UTC 2018-05-20 08:38:34
Writing application         : mkvmerge v23.0.0 ('The Bride Said No') 64-bit
Writing library             : libebml v1.3.6 + libmatroska v1.4.9


Video
ID                          : 1
Format                      : AVC
Format/Info                 : Advanced Video Codec
Format profile              : High@L4.1
Format settings             : CABAC / 4 Ref Frames
Format settings, CABAC      : Yes
Format settings, RefFrames  : 4 frames
Codec ID                    : V_MPEG4/ISO/AVC
Duration                    : 2 h 4 min
Bit rate                    : 4 471 kb/s
Width                       : 1 920 pixels
Height                      : 1 036 pixels
Display aspect ratio        : 1.85:1
Frame rate mode             : Constant
Frame rate                  : 23.976 (24000/1001) FPS
Color space                 : YUV
Chroma subsampling          : 4:2:0
Bit depth                   : 8 bits
Scan type                   : Progressive
Bits/(Pixel*Frame)          : 0.094
Stream size                 : 3.90 GiB (80%)
Title                       : AVC
Writing library             : x264 core 155 r2901 7d0ff22
Encoding settings           : cabac=1 / ref=4 / deblock=1:-3:-3 / analyse=0x3:0x113 / me=umh / subme=11 / psy=1 / psy_rd=1.10:0.00 / mixed_ref=1 / me_range=48 / chroma_me=1 / trellis=2 / 8x8dct=1 / cqm=0 / deadzone=21,11 / fast_pskip=0 / chroma_qp_offset=-2 / threads=32 / lookahead_threads=3 / sliced_threads=0 / nr=0 / decimate=1 / interlaced=0 / bluray_compat=0 / constrained_intra=0 / bframes=6 / b_pyramid=2 / b_adapt=2 / b_bias=0 / direct=1 / weightb=1 / open_gop=0 / weightp=2 / keyint=240 / keyint_min=23 / scenecut=40 / intra_refresh=0 / rc_lookahead=80 / rc=crf / mbtree=1 / crf=20.4 / qcomp=0.70 / qpmin=0 / qpmax=69 / qpstep=4 / vbv_maxrate=62500 / vbv_bufsize=78125 / crf_max=0.0 / nal_hrd=none / filler=0 / ip_ratio=1.40 / aq=1:1.10
Default                     : Yes
Forced                      : No
Color range                 : Limited
Color primaries             : BT.709
Transfer characteristics    : BT.709
Matrix coefficients         : BT.709


Audio [Tienes que estar registrado y conectado para ver este vínculo]
ID                          : 2
Format                      : AC-3
Format/Info                 : Audio Coding 3
Format settings, Endianness : Big
Codec ID                    : A_AC3
Duration                    : 2 h 4 min
Bit rate mode               : Constant
Bit rate                    : 640 kb/s
Channel(s)                  : 6 channels
Channel positions           : Front: L C R, Side: L R, LFE
Sampling rate               : 48.0 kHz
Frame rate                  : 31.250 FPS (1536 SPF)
Bit depth                   : 16 bits
Compression mode            : Lossy
Stream size                 : 571 MiB (12%)
Title                       : AC-3
Language                    : Spanish
Service kind                : Complete Main
Default                     : Yes
Forced                      : Yes


Audio [Tienes que estar registrado y conectado para ver este vínculo]
ID                          : 3
Format                      : AC-3
Format/Info                 : Audio Coding 3
Format settings, Endianness : Big
Codec ID                    : A_AC3
Duration                    : 2 h 4 min
Bit rate mode               : Constant
Bit rate                    : 448 kb/s
Channel(s)                  : 6 channels
Channel positions           : Front: L C R, Side: L R, LFE
Sampling rate               : 48.0 kHz
Frame rate                  : 31.250 FPS (1536 SPF)
Bit depth                   : 16 bits
Compression mode            : Lossy
Stream size                 : 400 MiB (8%)
Title                       : AC-3
Language                    : English
Service kind                : Complete Main
Default                     : No
Forced                      : No


Text [Tienes que estar registrado y conectado para ver este vínculo]
ID                          : 4
Format                      : UTF-8
Codec ID                    : S_TEXT/UTF8
Codec ID/Info               : UTF-8 Plain Text
Duration                    : 1 h 58 min
Bit rate                    : 1 b/s
Count of elements           : 41
Stream size                 : 1.16 KiB (0%)
Title                       : Forzados
Language                    : Spanish
Default                     : Yes
Forced                      : Yes


Text [Tienes que estar registrado y conectado para ver este vínculo]
ID                          : 5
Format                      : UTF-8
Codec ID                    : S_TEXT/UTF8
Codec ID/Info               : UTF-8 Plain Text
Duration                    : 2 h 3 min
Bit rate                    : 54 b/s
Count of elements           : 1560
Stream size                 : 49.6 KiB (0%)
Title                       : Completos
Language                    : Spanish
Default                     : No
Forced                      : No


Text [Tienes que estar registrado y conectado para ver este vínculo]
ID                          : 6
Format                      : UTF-8
Codec ID                    : S_TEXT/UTF8
Codec ID/Info               : UTF-8 Plain Text
Duration                    : 1 h 57 min
Bit rate                    : 58 b/s
Count of elements           : 1811
Stream size                 : 50.3 KiB (0%)
Title                       : Completos
Language                    : English
Default                     : No
Forced                      : No


Menu
00:00:00.000                : en: Chapter 1
00:05:20.028                : en: Chapter 2
00:10:17.951                : en: Chapter 3
00:13:59.589                : en: Chapter 4
00:22:33.060                : en: Chapter 5
00:29:23.178                : en: Chapter 6
00:37:09.519                : en: Chapter 7
00:41:04.587                : en: Chapter 8
00:48:26.904                : en: Chapter 9
00:56:16.498                : en: Chapter 10
01:02:38.463                : en: Chapter 11
01:10:57.003                : en: Chapter 12
01:18:41.467                : en: Chapter 13
01:24:05.791                : en: Chapter 14
01:30:25.629                : en: Chapter 15
01:35:58.753                : en: Chapter 16
01:39:33.968                : en: Chapter 17
01:45:20.105                : en: Chapter 18
01:52:55.227                : en: Chapter 19
01:59:45.011                : en: Chapter 20


Enlaces Descarga
Uptobox - Userscloud - 1fichier - Depositfiles - Filebebo - Rapidgator - Wayupload
En algunos servidores (Tusfiles, Filebebo, Userscloud...) es necesario estar registrado para descargar a mayor velocidad.


Enlaces Online
Rapidvideo - Openload - Vidoza - Streamango - Vidlox - Downace
Para ver online en Userscloud necesitas estar registrado en su página y usar el navegador Google Chrome


Reproductor



NOTA: Por favor, si los enlaces están caidos avisa en un comentario para poder resubirlos. Gracias

______________________________________________________
Saludos  Smile
Volver arriba
Permisos de este foro:
No puedes responder a temas en este foro.