Comparte
Ir abajo
avatar
Admin
Administrador
Administrador
Sexo : Masculino
Mensajes : 1514
Puntos : 4771
Reputación : 1103
Fecha de inscripción : 02/04/2012
Localización : España

Pirateo El cuaderno de Sara (2018) [Ver + Descargar] [HD 1080p] [Castellano] [Aventuras]

el Mar 22 Mayo 2018 - 1:37
Reputación del mensaje :100% (1 voto)

Ficha Técnica
SINOPSIS: Laura busca desde hace años a su hermana Sara, desaparecida en medio de la selva del Congo. Ni la ONG para la que trabajaba ni la Embajada tenían noticias de su paradero... hasta que aparece una foto de un poblado minero del este del Congo con la imagen borrosa de Sara. Sin dudarlo un momento, Laura viaja hasta Kinshasa dispuesta a adentrarse en el territorio de los "Señores de la Guerra", dejando atrás las diferencias que la separaron de su hermana, y sin sospechar que esa peligrosa aventura le llevará a poner en peligro su propia vida.
TÍTULO ORIGINAL: El cuaderno de Sara
AÑO: [Tienes que estar registrado y conectado para ver este vínculo]
DURACIÓN: 115 min.
PAÍS:  España
DIRECTOR: Norberto López Amado
REPARTO: Belén Rueda,  Manolo Cardona,  Marián Álvarez,  Enrico Lo Verso,  Florín Opritescu, Malcolm Sitté,  Iván Mendes,  Marta Belaustegui,  Nick Devlin,  Ramón Barea
GÉNERO: [Tienes que estar registrado y conectado para ver este vínculo] [Tienes que estar registrado y conectado para ver este vínculo] [Tienes que estar registrado y conectado para ver este vínculo] | [Tienes que estar registrado y conectado para ver este vínculo] [Tienes que estar registrado y conectado para ver este vínculo] / [Tienes que estar registrado y conectado para ver este vínculo]

Capturas



Trailer

Info
CALIDAD DE VIDEO: BDRip m1080p MPEG4 Video (H264) 1920x800
CALIDAD DE AUDIO 1: Castellano DTS - 5.1 - 1509 Kbps
CALIDAD DE AUDIO 2: Castellano AC-3 - 5.1 - 448 Kbps
SUBTITULOS: Incluye completos  en inglés y forzados en español.
TAMAÑO: 5.96 GiB
Mediainfo:
Format                      : Matroska
Format version              : Version 4 / Version 2
File size                   : 5.96 GiB
Duration                    : 1 h 56 min
Overall bit rate            : 7 348 kb/s
Movie name                  : El cuaderno de Sara - [Tienes que estar registrado y conectado para ver este vínculo]
Encoded date                : UTC 2018-05-21 16:05:11
Writing application         : mkvmerge v23.0.0 ('The Bride Said No') 64-bit
Writing library             : libebml v1.3.6 + libmatroska v1.4.9


Video
ID                          : 1
Format                      : AVC
Format/Info                 : Advanced Video Codec
Format profile              : High@L4.1
Format settings             : CABAC / 2 Ref Frames
Format settings, CABAC      : Yes
Format settings, RefFrames  : 2 frames
Codec ID                    : V_MPEG4/ISO/AVC
Duration                    : 1 h 56 min
Bit rate                    : 5 389 kb/s
Width                       : 1 920 pixels
Height                      : 800 pixels
Display aspect ratio        : 2.40:1
Frame rate mode             : Constant
Frame rate                  : 24.000 FPS
Color space                 : YUV
Chroma subsampling          : 4:2:0
Bit depth                   : 8 bits
Scan type                   : Progressive
Bits/(Pixel*Frame)          : 0.146
Stream size                 : 4.37 GiB (73%)
Title                       : AVC
Writing library             : x264 core 142
Encoding settings           : cabac=1 / ref=1 / deblock=1👎-1 / analyse=0x3:0 / me=hex / subme=5 / psy=0 / mixed_ref=0 / me_range=16 / chroma_me=1 / trellis=0 / 8x8dct=1 / cqm=0 / deadzone=21,11 / fast_pskip=0 / chroma_qp_offset=0 / threads=16 / lookahead_threads=4 / sliced_threads=0 / nr=0 / decimate=1 / interlaced=0 / bluray_compat=0 / constrained_intra=0 / bframes=2 / b_pyramid=0 / b_adapt=1 / b_bias=0 / direct=1 / weightb=0 / open_gop=0 / weightp=0 / keyint=24 / keyint_min=13 / scenecut=40 / intra_refresh=0 / rc=crf / mbtree=0 / crf=23.0 / qcomp=0.60 / qpmin=0 / qpmax=69 / qpstep=4 / ip_ratio=1.40 / pb_ratio=1.30 / aq=1:1.00
Language                    : Spanish
Default                     : Yes
Forced                      : Yes
Color range                 : Limited
Color primaries             : BT.709
Transfer characteristics    : BT.709
Matrix coefficients         : BT.709


Audio [Tienes que estar registrado y conectado para ver este vínculo]
ID                          : 2
Format                      : DTS
Format/Info                 : Digital Theater Systems
Mode                        : 16
Format settings, Endianness : Big
Codec ID                    : A_DTS
Duration                    : 1 h 56 min
Bit rate mode               : Constant
Bit rate                    : 1 509 kb/s
Channel(s)                  : 6 channels
Channel positions           : Front: L C R, Side: L R, LFE
Sampling rate               : 48.0 kHz
Frame rate                  : 93.750 FPS (512 SPF)
Bit depth                   : 24 bits
Compression mode            : Lossy
Stream size                 : 1.22 GiB (21%)
Title                       : DTS
Language                    : Spanish
Default                     : Yes
Forced                      : No


Audio [Tienes que estar registrado y conectado para ver este vínculo]
ID                          : 3
Format                      : AC-3
Format/Info                 : Audio Coding 3
Format settings, Endianness : Big
Codec ID                    : A_AC3
Duration                    : 1 h 56 min
Bit rate mode               : Constant
Bit rate                    : 448 kb/s
Channel(s)                  : 6 channels
Channel positions           : Front: L C R, Side: L R, LFE
Sampling rate               : 48.0 kHz
Frame rate                  : 31.250 FPS (1536 SPF)
Bit depth                   : 16 bits
Compression mode            : Lossy
Stream size                 : 372 MiB (6%)
Title                       : AC-3
Language                    : Spanish
Service kind                : Complete Main
Default                     : No
Forced                      : No


Text [Tienes que estar registrado y conectado para ver este vínculo]
ID                          : 4
Format                      : UTF-8
Codec ID                    : S_TEXT/UTF8
Codec ID/Info               : UTF-8 Plain Text
Duration                    : 1 h 40 min
Bit rate                    : 6 b/s
Count of elements           : 157
Stream size                 : 4.59 KiB (0%)
Title                       : Forzados
Language                    : Spanish
Default                     : Yes
Forced                      : No


Text [Tienes que estar registrado y conectado para ver este vínculo]
ID                          : 5
Format                      : PGS
Muxing mode                 : zlib
Codec ID                    : S_HDMV/PGS
Codec ID/Info               : Picture based subtitle format used on BDs/HD-DVDs
Duration                    : 1 h 55 min
Bit rate                    : 18.0 kb/s
Count of elements           : 1596
Stream size                 : 14.9 MiB (0%)
Title                       : Completos
Language                    : English
Default                     : No
Forced                      : No


Menu
00:00:00.000                : en:00:00:00.000
00:10:54.708                : en:00:10:54.708
00:19:51.917                : en:00:19:51.917
00:27:14.250                : en:00:27:14.250
00:37:55.292                : en:00:37:55.292
00:48:31.167                : en:00:48:31.167
00:57:55.500                : en:00:57:55.500
01:06:15.583                : en:01:06:15.583
01:15:33.625                : en:01:15:33.625
01:27:19.958                : en:01:27:19.958
01:36:42.417                : en:01:36:42.417
01:44:07.958                : en:01:44:07.958


Enlaces Descarga
Tusfiles - Uptobox - 1fichier - Userscloud - Depositfiles - Wayupload
En algunos servidores (Tusfiles, Filebebo, Userscloud...) es necesario estar registrado para descargar a mayor velocidad.


Enlaces Online
Rapidvideo - Openload - Vidoza - Streamango - Vidlox - Userscloud - Downace
Para ver online en Userscloud necesitas estar registrado en su página y usar el navegador Google Chrome


Reproductor



NOTA: Por favor, si los enlaces están caidos avisa en un comentario para poder resubirlos. Gracias

______________________________________________________
Saludos  Smile
Volver arriba
Permisos de este foro:
No puedes responder a temas en este foro.