Comparte
Ir abajo
avatar
Admin
Administrador
Administrador
Sexo : Masculino
Mensajes : 2217
Puntos : 6759
Reputación : 1322
Fecha de inscripción : 02/04/2012
Localización : España

Drama Loving Vincent (2017) [Ver Online] [Descargar] [HD 1080p] [Esañol-Inglés] [Drama]

el Mar 29 Mayo 2018 - 23:23
Reputación del mensaje :100% (1 voto)

Ficha Técnica
SINOPSIS: Primer largometraje compuesto por pinturas animadas, "Loving Vincent" es un film homenaje a Van Gogh en el que cada fotograma es un cuadro pintado sobre óleo, tal y como el propio Vincent lo hubiera pintado. Sus 80 minutos de duración están compuestos por 56.800 fotogramas que han sido pintados, uno a uno, por una gran cantidad de excelentes pintores a lo largo de varios años, todos inspirándose en el estilo y arte magistral de Van Gogh.
TÍTULO ORIGINAL: Loving Vincent
AÑO: [Tienes que estar registrado y conectado para ver este vínculo]
DURACIÓN: 95 min.
PAÍS:  Polonia
DIRECTOR: Dorota Kobiela,  Hugh Welchman
REPARTO: Animation,  Douglas Booth,  Helen McCrory,  Saoirse Ronan,  Aidan Turner, Eleanor Tomlinson,  Chris O'Dowd,  Jerome Flynn,  John Sessions,  Holly Earl, Robert Gulaczyk,  James Greene,  Bill Thomas,  Martin Herdman,  Josh Burdett, Richard Banks,  Shaun Newnham
GÉNERO: [Tienes que estar registrado y conectado para ver este vínculo] [Tienes que estar registrado y conectado para ver este vínculo] | [Tienes que estar registrado y conectado para ver este vínculo] [Tienes que estar registrado y conectado para ver este vínculo]

Capturas



Trailer

Info
CALIDAD DE VIDEO: BDRip m1080p MPEG4 Video (H264) 1488x1080
CALIDAD DE AUDIO 1: Castellano DTS - 5.1 - 1509 Kbps
CALIDAD DE AUDIO 2: Castellano AC-3 - 5.1 - 448 Kbps
CALIDAD DE AUDIO 2: Inglés AC-3 - 5.1 - 448 Kbps
SUBTITULOS: Incluye completos y forzados en español.
TAMAÑO: 5.20
Mediainfo:
Format                      : Matroska
Format version              : Version 4 / Version 2
File size                   : 5.20 GiB
Duration                    : 1 h 34 min
Overall bit rate            : 7 863 kb/s
Movie name                  : Loving Vincent - [Tienes que estar registrado y conectado para ver este vínculo]
Encoded date                : UTC 2018-05-27 02:20:28
Writing application         : mkvmerge v23.0.0 ('The Bride Said No') 64-bit
Writing library             : libebml v1.3.6 + libmatroska v1.4.9


Video
ID                          : 1
Format                      : AVC
Format/Info                 : Advanced Video Codec
Format profile              : High@L4.1
Format settings             : CABAC / 4 Ref Frames
Format settings, CABAC      : Yes
Format settings, RefFrames  : 4 frames
Codec ID                    : V_MPEG4/ISO/AVC
Duration                    : 1 h 34 min
Bit rate                    : 5 453 kb/s
Width                       : 1 488 pixels
Height                      : 1 080 pixels
Display aspect ratio        : 1.378
Frame rate mode             : Constant
Frame rate                  : 24.000 FPS
Color space                 : YUV
Chroma subsampling          : 4:2:0
Bit depth                   : 8 bits
Scan type                   : Progressive
Bits/(Pixel*Frame)          : 0.141
Stream size                 : 3.61 GiB (69%)
Title                       : AVC
Writing library             : x264 core 152 r2851 ba24899
Encoding settings           : cabac=1 / ref=4 / deblock=1:0:0 / analyse=0x3:0x133 / me=umh / subme=7 / psy=1 / psy_rd=1.00:0.00 / mixed_ref=1 / me_range=16 / chroma_me=1 / trellis=1 / 8x8dct=1 / cqm=0 / deadzone=21,11 / fast_pskip=0 / chroma_qp_offset=-2 / threads=24 / lookahead_threads=4 / sliced_threads=0 / nr=0 / decimate=1 / interlaced=0 / bluray_compat=0 / constrained_intra=0 / bframes=3 / b_pyramid=2 / b_adapt=1 / b_bias=0 / direct=1 / weightb=1 / open_gop=0 / weightp=2 / keyint=250 / keyint_min=23 / scenecut=40 / intra_refresh=0 / rc_lookahead=40 / rc=2pass / mbtree=1 / bitrate=5453 / ratetol=1.0 / qcomp=0.60 / qpmin=0 / qpmax=69 / qpstep=4 / cplxblur=20.0 / qblur=0.5 / ip_ratio=1.40 / aq=1:1.00
Language                    : Spanish
Default                     : Yes
Forced                      : No


Audio [Tienes que estar registrado y conectado para ver este vínculo]
ID                          : 2
Format                      : DTS
Format/Info                 : Digital Theater Systems
Mode                        : 16
Format settings, Endianness : Big
Codec ID                    : A_DTS
Duration                    : 1 h 34 min
Bit rate mode               : Constant
Bit rate                    : 1 509 kb/s
Channel(s)                  : 6 channels
Channel positions           : Front: L C R, Side: L R, LFE
Sampling rate               : 48.0 kHz
Frame rate                  : 93.750 FPS (512 SPF)
Bit depth                   : 24 bits
Compression mode            : Lossy
Delay relative to video     : 7 ms
Stream size                 : 1 021 MiB (19%)
Title                       : DTS
Language                    : Spanish
Default                     : Yes
Forced                      : Yes


Audio [Tienes que estar registrado y conectado para ver este vínculo]
ID                          : 3
Format                      : AC-3
Format/Info                 : Audio Coding 3
Format settings, Endianness : Big
Codec ID                    : A_AC3
Duration                    : 1 h 34 min
Bit rate mode               : Constant
Bit rate                    : 448 kb/s
Channel(s)                  : 6 channels
Channel positions           : Front: L C R, Side: L R, LFE
Sampling rate               : 48.0 kHz
Frame rate                  : 31.250 FPS (1536 SPF)
Bit depth                   : 16 bits
Compression mode            : Lossy
Delay relative to video     : 28 ms
Stream size                 : 303 MiB (6%)
Title                       : AC-3
Language                    : Spanish
Service kind                : Complete Main
Default                     : No
Forced                      : No


Audio [Tienes que estar registrado y conectado para ver este vínculo]
ID                          : 4
Format                      : AC-3
Format/Info                 : Audio Coding 3
Format settings, Endianness : Big
Codec ID                    : A_AC3
Duration                    : 1 h 34 min
Bit rate mode               : Constant
Bit rate                    : 448 kb/s
Channel(s)                  : 6 channels
Channel positions           : Front: L C R, Side: L R, LFE
Sampling rate               : 48.0 kHz
Frame rate                  : 31.250 FPS (1536 SPF)
Bit depth                   : 16 bits
Compression mode            : Lossy
Delay relative to video     : 28 ms
Stream size                 : 303 MiB (6%)
Title                       : AC-3
Language                    : English
Service kind                : Complete Main
Default                     : No
Forced                      : No


Text [Tienes que estar registrado y conectado para ver este vínculo]
ID                          : 5
Format                      : UTF-8
Codec ID                    : S_TEXT/UTF8
Codec ID/Info               : UTF-8 Plain Text
Duration                    : 1 h 30 min
Bit rate                    : 3 b/s
Count of elements           : 45
Stream size                 : 2.15 KiB (0%)
Title                       : Forzados
Language                    : Spanish
Default                     : Yes
Forced                      : Yes


Text [Tienes que estar registrado y conectado para ver este vínculo]
ID                          : 6
Format                      : UTF-8
Codec ID                    : S_TEXT/UTF8
Codec ID/Info               : UTF-8 Plain Text
Duration                    : 1 h 30 min
Bit rate                    : 67 b/s
Count of elements           : 1300
Stream size                 : 44.6 KiB (0%)
Title                       : Completos
Language                    : Spanish
Default                     : No
Forced                      : No


Menu
00:00:00.000                : en:00:00:00.000
00:10:28.002                : en:00:10:28.002
00:22:59.044                : en:00:22:59.044
00:38:05.408                : en:00:38:05.408
00:48:47.967                : en:00:48:47.967
01:03:16.960                : en:01:03:16.960
01:14:26.921                : en:01:14:26.921
01:28:26.885                : en:01:28:26.885


Enlaces Descarga
Uptobox - Userscloud - 1fichier - Depositfiles - Wayupload
En algunos servidores (Tusfiles, Filebebo, Userscloud...) es necesario estar registrado para descargar a mayor velocidad.


Enlaces Online
Rapidvideo - Openload - Vidoza - Streamango - Vidlox - Userscloud - Downace
Para ver online en Userscloud necesitas estar registrado en su página y usar el navegador Google Chrome


Reproductor
(Vidlox)



NOTA: Por favor, si los enlaces están caidos avisa en un comentario para poder resubirlos. Gracias

______________________________________________________
[Tienes que estar registrado y conectado para ver este vínculo]
Saludos  Smile
Volver arriba
Permisos de este foro:
No puedes responder a temas en este foro.