Comparte
Ir abajo
avatar
Admin
Administrador
Administrador
Sexo : Masculino
Mensajes : 1159
Puntos : 3959
Reputación : 976
Fecha de inscripción : 02/04/2012
Localización : España

C.Ficción Fahrenheit 451 (2018) [Ver Online] [Descargar] [HD 1080p] [Español-Inglés] [C.Ficción]

el Miér 30 Mayo 2018 - 0:23
Reputación del mensaje :100% (1 voto)

Ficha Técnica
SINOPSIS: La trama gira en torno a Guy Montag, un bombero encargado de quemar los libros por orden del gobierno. Un día conoce a Clarisse McClellan, una chica que vive al lado de su casa, la cual le hace reflexionar acerca de si es feliz o no. Confuso, sobre si los libros son buenos o no, decide robar uno cuando van a quemar una casa. Días más tarde Clarisse desaparece. Nueva adaptación de la aclamada novela distópica de Ray Bradbury.
TÍTULO ORIGINAL: Fahrenheit 451 (TV)
AÑO: [Tienes que estar registrado y conectado para ver este vínculo]
DURACIÓN: 100 min.
PAÍS:  Estados Unidos
DIRECTOR: Ramin Bahrani
REPARTO: Michael B. Jordan,  Michael Shannon,  Sofia Boutella,  Laura Harrier,  Lilly Singh, Keir Dullea,  Chris Gleason,  Martin Donovan,  Grace Lynn Kung,  Joe Pingue, Sean Jones,  Dylan Taylor,  Lynne Griffin,  Saad Siddiqui
GÉNERO: Ciencia [Tienes que estar registrado y conectado para ver este vínculo] [Tienes que estar registrado y conectado para ver este vínculo] | [Tienes que estar registrado y conectado para ver este vínculo] [Tienes que estar registrado y conectado para ver este vínculo]

Capturas



Trailer

Info
CALIDAD DE VIDEO: BDRip m1080p MPEG4 Video (H264) 1920x1080
CALIDAD DE AUDIO 1: Castellano AC-3 - 2 Canales - 448 Kbps
CALIDAD DE AUDIO 2: Inglés AC-3 - 5.1 - 448 Kbps
SUBTITULOS: Incluye completos en español e inglés y forzados en español.
TAMAÑO: 4.15 GiB
Mediainfo:
Format                      : Matroska
Format version              : Version 4 / Version 2
File size                   : 4.15 GiB
Duration                    : 1 h 40 min
Overall bit rate            : 5 930 kb/s
Movie name                  : Fahrenheit 451 - [Tienes que estar registrado y conectado para ver este vínculo]
Encoded date                : UTC 2018-05-27 20:01:13
Writing application         : mkvmerge v23.0.0 ('The Bride Said No') 64-bit
Writing library             : libebml v1.3.6 + libmatroska v1.4.9


Video
ID                          : 1
Format                      : AVC
Format/Info                 : Advanced Video Codec
Format profile              : High@L4.1
Format settings             : CABAC / 2 Ref Frames
Format settings, CABAC      : Yes
Format settings, RefFrames  : 2 frames
Codec ID                    : V_MPEG4/ISO/AVC
Duration                    : 1 h 40 min
Bit rate                    : 5 032 kb/s
Width                       : 1 920 pixels
Height                      : 1 080 pixels
Display aspect ratio        : 16:9
Frame rate mode             : Constant
Frame rate                  : 23.976 (24000/1001) FPS
Color space                 : YUV
Chroma subsampling          : 4:2:0
Bit depth                   : 8 bits
Scan type                   : Progressive
Bits/(Pixel*Frame)          : 0.101
Stream size                 : 3.52 GiB (85%)
Title                       : AVC
Language                    : Spanish
Default                     : Yes
Forced                      : No
Color range                 : Limited
Color primaries             : BT.709
Transfer characteristics    : BT.709
Matrix coefficients         : BT.709


Audio [Tienes que estar registrado y conectado para ver este vínculo]
ID                          : 2
Format                      : AC-3
Format/Info                 : Audio Coding 3
Format settings, Endianness : Big
Codec ID                    : A_AC3
Duration                    : 1 h 40 min
Bit rate mode               : Constant
Bit rate                    : 448 kb/s
Channel(s)                  : 2 channels
Channel positions           : Front: L R
Sampling rate               : 48.0 kHz
Frame rate                  : 31.250 FPS (1536 SPF)
Bit depth                   : 16 bits
Compression mode            : Lossy
Delay relative to video     : 25 ms
Stream size                 : 321 MiB (8%)
Title                       : AC-3
Language                    : Spanish
Service kind                : Complete Main
Default                     : Yes
Forced                      : No


Audio [Tienes que estar registrado y conectado para ver este vínculo]
ID                          : 3
Format                      : AC-3
Format/Info                 : Audio Coding 3
Format settings, Endianness : Big
Codec ID                    : A_AC3
Duration                    : 1 h 40 min
Bit rate mode               : Constant
Bit rate                    : 448 kb/s
Channel(s)                  : 6 channels
Channel positions           : Front: L C R, Side: L R, LFE
Sampling rate               : 48.0 kHz
Frame rate                  : 31.250 FPS (1536 SPF)
Bit depth                   : 16 bits
Compression mode            : Lossy
Delay relative to video     : 25 ms
Stream size                 : 321 MiB (8%)
Title                       : AC-3
Language                    : English
Service kind                : Complete Main
Default                     : No
Forced                      : No


Text [Tienes que estar registrado y conectado para ver este vínculo]
ID                          : 4
Format                      : UTF-8
Codec ID                    : S_TEXT/UTF8
Codec ID/Info               : UTF-8 Plain Text
Duration                    : 1 h 23 min
Bit rate                    : 0 b/s
Count of elements           : 22
Stream size                 : 395 Bytes (0%)
Title                       : Forzados
Language                    : Spanish
Default                     : Yes
Forced                      : No


Text [Tienes que estar registrado y conectado para ver este vínculo]
ID                          : 5
Format                      : UTF-8
Codec ID                    : S_TEXT/UTF8
Codec ID/Info               : UTF-8 Plain Text
Duration                    : 1 h 34 min
Bit rate                    : 45 b/s
Count of elements           : 965
Stream size                 : 31.7 KiB (0%)
Title                       : Completos
Language                    : Spanish
Default                     : No
Forced                      : No


Text [Tienes que estar registrado y conectado para ver este vínculo]
ID                          : 6
Format                      : UTF-8
Codec ID                    : S_TEXT/UTF8
Codec ID/Info               : UTF-8 Plain Text
Duration                    : 1 h 32 min
Bit rate                    : 49 b/s
Count of elements           : 1072
Stream size                 : 33.8 KiB (0%)
Title                       : Completos
Language                    : English
Default                     : No
Forced                      : No


Enlaces Descarga
Tusfiles - Uptobox - Userscloud - 1fichier - Depositfiles - Filebebo - Rapidgator - Wayupload
En algunos servidores (Tusfiles, Filebebo, Userscloud...) es necesario estar registrado para descargar a mayor velocidad.


Enlaces Online
Rapidvideo - Openload - Vidoza - Streamango - Vidlox - Userscloud - Downace
Para ver online en Userscloud necesitas estar registrado en su página y usar el navegador Google Chrome


Reproductor
(Vidlox)



NOTA: Por favor, si los enlaces están caidos avisa en un comentario para poder resubirlos. Gracias

______________________________________________________
Saludos  Smile
Volver arriba
Permisos de este foro:
No puedes responder a temas en este foro.