Comparte
Ir abajo
avatar
Admin
Administrador
Administrador
Sexo : Masculino
Mensajes : 1159
Puntos : 3959
Reputación : 976
Fecha de inscripción : 02/04/2012
Localización : España

Drama El hilo invisible (2017) [Ver online] [Descargar] [HD 1080p] [Español-Inglés] [Drama]

el Miér 30 Mayo 2018 - 21:14
Reputación del mensaje :100% (1 voto)

Ficha Técnica
SINOPSIS: En el Londres de la posguerra, en 1950, el famoso modisto Reynolds Woodcock (Daniel Day-Lewis) y su hermana Cyril (Lesley Manville) están a la cabeza de la moda británica, vistiendo a la realeza y a toda mujer elegante de la época. Un día, el soltero Reynolds conoce a Alma (Vicky Krieps), una dulce joven que pronto se convierte en su musa y amante. Y su vida, hasta entonces cuidadosamente controlada y planificada, se ve alterada por la irrupción del amor.
TÍTULO ORIGINAL: Phantom Thread
AÑO: [Tienes que estar registrado y conectado para ver este vínculo]
DURACIÓN: 130 min.
PAÍS:  Estados Unidos
DIRECTOR: Paul Thomas Anderson
REPARTO: Daniel Day-Lewis,  Vicky Krieps,  Lesley Manville,  Richard Graham,  Bern Collaco, Jane Perry,  Camilla Rutherford,  Pip Phillips,  Dave Simon,  Ingrid Sophie Schram
GÉNERO: [Tienes que estar registrado y conectado para ver este vínculo] [Tienes que estar registrado y conectado para ver este vínculo] | Años 50 [Tienes que estar registrado y conectado para ver este vínculo]

Capturas



Trailer

Info
CALIDAD DE VIDEO: BDRip m1080p MPEG4 Video (H264) 1920x1036
CALIDAD DE AUDIO 1: Castellano AC-3 - 5.1 - 448 Kbps
CALIDAD DE AUDIO 2: Inglés AC-3 - 5.1 - 448 Kbps
SUBTITULOS: Incluye completos en español e inglés y forzados en español.
TAMAÑO: 5.36 GiB
Mediainfo:
Format                      : Matroska
Format version              : Version 4 / Version 2
File size                   : 5.36 GiB
Duration                    : 2 h 10 min
Overall bit rate            : 5 897 kb/s
Movie name                  : El hilo invisible - [Tienes que estar registrado y conectado para ver este vínculo]
Encoded date                : UTC 2018-05-28 23:07:32
Writing application         : mkvmerge v23.0.0 ('The Bride Said No') 64-bit
Writing library             : libebml v1.3.6 + libmatroska v1.4.9


Video
ID                          : 1
Format                      : AVC
Format/Info                 : Advanced Video Codec
Format profile              : High@L4.1
Format settings             : CABAC / 4 Ref Frames
Format settings, CABAC      : Yes
Format settings, RefFrames  : 4 frames
Codec ID                    : V_MPEG4/ISO/AVC
Duration                    : 2 h 10 min
Bit rate                    : 5 000 kb/s
Width                       : 1 920 pixels
Height                      : 1 036 pixels
Display aspect ratio        : 1.85:1
Frame rate mode             : Constant
Frame rate                  : 23.976 (24000/1001) FPS
Color space                 : YUV
Chroma subsampling          : 4:2:0
Bit depth                   : 8 bits
Scan type                   : Progressive
Bits/(Pixel*Frame)          : 0.105
Stream size                 : 4.54 GiB (85%)
Title                       : AVC
Writing library             : x264 core 155 r2901 7d0ff22
Encoding settings           : cabac=1 / ref=4 / deblock=1:-3:-3 / analyse=0x3:0x113 / me=umh / subme=11 / psy=1 / psy_rd=1.10:0.00 / mixed_ref=1 / me_range=64 / chroma_me=1 / trellis=2 / 8x8dct=1 / cqm=0 / deadzone=21,11 / fast_pskip=0 / chroma_qp_offset=-2 / threads=32 / lookahead_threads=8 / sliced_threads=0 / nr=0 / decimate=1 / interlaced=0 / bluray_compat=0 / constrained_intra=0 / bframes=10 / b_pyramid=2 / b_adapt=2 / b_bias=0 / direct=1 / weightb=1 / open_gop=0 / weightp=2 / keyint=240 / keyint_min=23 / scenecut=40 / intra_refresh=0 / rc_lookahead=80 / rc=2pass / mbtree=1 / bitrate=5000 / ratetol=2.0 / qcomp=0.75 / qpmin=0 / qpmax=69 / qpstep=4 / cplxblur=20.0 / qblur=0.5 / vbv_maxrate=62500 / vbv_bufsize=78125 / nal_hrd=none / filler=0 / ip_ratio=1.40 / aq=1:1.10
Language                    : Spanish
Default                     : Yes
Forced                      : No
Color range                 : Limited
Color primaries             : BT.709
Transfer characteristics    : BT.709
Matrix coefficients         : BT.709


Audio [Tienes que estar registrado y conectado para ver este vínculo]
ID                          : 2
Format                      : AC-3
Format/Info                 : Audio Coding 3
Format settings, Endianness : Big
Codec ID                    : A_AC3
Duration                    : 2 h 10 min
Bit rate mode               : Constant
Bit rate                    : 448 kb/s
Channel(s)                  : 6 channels
Channel positions           : Front: L C R, Side: L R, LFE
Sampling rate               : 48.0 kHz
Frame rate                  : 31.250 FPS (1536 SPF)
Bit depth                   : 16 bits
Compression mode            : Lossy
Stream size                 : 417 MiB (8%)
Title                       : AC-3
Language                    : Spanish
Service kind                : Complete Main
Default                     : Yes
Forced                      : Yes


Audio [Tienes que estar registrado y conectado para ver este vínculo]
ID                          : 3
Format                      : AC-3
Format/Info                 : Audio Coding 3
Format settings, Endianness : Big
Codec ID                    : A_AC3
Duration                    : 2 h 10 min
Bit rate mode               : Constant
Bit rate                    : 448 kb/s
Channel(s)                  : 6 channels
Channel positions           : Front: L C R, Side: L R, LFE
Sampling rate               : 48.0 kHz
Frame rate                  : 31.250 FPS (1536 SPF)
Bit depth                   : 16 bits
Compression mode            : Lossy
Stream size                 : 417 MiB (8%)
Title                       : AC-3
Language                    : English
Service kind                : Complete Main
Default                     : No
Forced                      : No


Text [Tienes que estar registrado y conectado para ver este vínculo]
ID                          : 4
Format                      : UTF-8
Codec ID                    : S_TEXT/UTF8
Codec ID/Info               : UTF-8 Plain Text
Duration                    : 2 h 3 min
Bit rate                    : 0 b/s
Count of elements           : 3
Stream size                 : 96.0 Bytes (0%)
Title                       : Forzados
Language                    : Spanish
Default                     : Yes
Forced                      : Yes


Text [Tienes que estar registrado y conectado para ver este vínculo]
ID                          : 5
Format                      : UTF-8
Codec ID                    : S_TEXT/UTF8
Codec ID/Info               : UTF-8 Plain Text
Duration                    : 2 h 9 min
Bit rate                    : 34 b/s
Count of elements           : 1141
Stream size                 : 32.4 KiB (0%)
Title                       : Completos
Language                    : Spanish
Default                     : No
Forced                      : No


Text [Tienes que estar registrado y conectado para ver este vínculo]
ID                          : 6
Format                      : UTF-8
Codec ID                    : S_TEXT/UTF8
Codec ID/Info               : UTF-8 Plain Text
Duration                    : 2 h 2 min
Bit rate                    : 42 b/s
Count of elements           : 1276
Stream size                 : 38.2 KiB (0%)
Title                       : Completos
Language                    : English
Default                     : No
Forced                      : No


Menu
00:00:00.000                : en:Logos/House of Woodcock
00:05:45.637                : en:Henrietta Harding
00:11:05.665                : en:To the Country
00:15:52.160                : en:The First Date
00:24:00.356                : en:Atelier
00:31:02.444                : en:Whatever You Do, Do It Carefully
00:35:57.614                : en:Have You Had Enough To Eat?
00:39:49.804                : en:Flemish Lace/Schubert
00:44:24.328                : en:First Illness
00:47:45.654                : en:Barbara Rose
00:56:30.679                : en:Princess Mona
01:02:14.648                : en:Asparagus Dinner
01:10:49.954                : en:Second Illness
01:20:55.392                : en:Tailor of Fitzrovia
01:25:32.669                : en:Mama Woodcock
01:34:43.803                : en:Wedding Bells
01:37:20.877                : en:Lady Baltimore's Party
01:42:04.035                : en:New Year's Eve
01:48:16.031                : en:Tinker's Curse/Final Illness
01:59:34.751                : en:Kiss Me My Girl/Epilogue


Enlaces Descarga
Uptobox - Userscloud - 1fichier - Depositfiles - Wayupload
En algunos servidores (Tusfiles, Filebebo, Userscloud...) es necesario estar registrado para descargar a mayor velocidad.


Enlaces Online
Rapidvideo - Openload - Vidoza - Streamango - Vidlox - Userscloud
Para ver online en Userscloud necesitas estar registrado en su página y usar el navegador Google Chrome


Reproductor



NOTA: Por favor, si los enlaces están caidos avisa en un comentario para poder resubirlos. Gracias

______________________________________________________
Saludos  Smile
Volver arriba
Permisos de este foro:
No puedes responder a temas en este foro.